Welcome Guest ( Log In | Register )

> Releases Upload / Добавление релизов

Добавить релиз тут / Click here to add release
Рекомендованные обменники / Recommended file shares

> Banshee - Schattenreich (2021), Black Metal (D14)
post May 3 2021, 00:41:40
Post #1

Два Литра
**
Group: Завсегдатай
Posts: 113
Releases: 104
On Forums: 2 weeks 6 days
Thanks: 2044 time(s)
United States


(IMG:https://metalarea.org/images/audiocovers/2021_May/acov_tid350377_thumb.jpg)

*Artist: Banshee
*Album: Schattenreich
*Year: 2021
*Genre: Black Metal
*Country: Germany (IMG:https://metalarea.org/forum/style_images/flags/Germany.png)
*Format: mp3@CBR320kbps
*Size: 79MB

Tracklist:
01. Der Fährmann
02. Knochentor
03. Atrium Mortis
04. Atramentous Dawn
05. Das Leben Erlischt Wie Die Flamme
******************************
Total playing time: 31:36

(IMG:https://metalarea.org/images/youtube.png)

Technical info
(IMG:https://metalarea.org/images/spectrogram/2021_May/6605eea06bf4024b3a306b17f833972d.png)
Input File: 02. Knochentor.mp3
Channels : 2
Sample Rate : 44100
Precision : 16-bit
Duration : 00:06:53.65 = 18241877 samples = 31023.6 CDDA sectors
File Size : 16.6M
Bit Rate : 321k
Sample Encoding: MPEG audio (layer I, II or III)
Comments :
Title=Knochentor
Artist=Banshee
Album=Schattenreich
Tracknumber=02/05
Year=2021
Genre=Black Metal



Register


Go to the top of the page
  Insert nick Quick quote
+Quote Post
 
Start new topic
Replies (1 - 2)
post May 3 2021, 14:46:13
Post #2

Common dweller of hell
**************
Group: Металариец
Posts: 3,752
Releases: 12
From: Dnipro
On Forums: 12 years 10 months
Thanks: 1472 time(s)
Ukraine




Thanks:
Go to the top of the page
  Insert nick Quick quote
+Quote Post
post May 4 2021, 18:54:14
Post #3

Group: Подсевший
Posts: 23
Releases: 0
On Forums: 9 years 2 months
Thanks: 26 time(s)
Hungary




Thanks:
(1) squall8fr,
Go to the top of the page
  Insert nick Quick quote
+Quote Post

Reply to this topicStart new topic
1 User(s) are reading this topic (1 Guests and 0 Anonymous Users)
0 Members:

 



- Lo-Fi Version Support form
Copyrights and abuse reports form
Time is now: 18th May 2021 - 01:46:30