Welcome Guest ( Log In | Register )

> Releases Upload / Добавление релизов

Добавить релиз тут / Click here to add release
Рекомендованные обменники / Recommended file shares

 
Reply to this topicStart new topic
> Voin Grim - An Eldest Throne Of Profane Fortress [ep] (2021), Atmospheric Black Metal (D)
post May 3 2021, 00:52:52
Post #1

Malum dominus omnium
****
Group: Металариец
Posts: 364
Releases: 275
On Forums: 1 year 3 months
Thanks: 5496 time(s)
Vatican City


(IMG:https://metalarea.org/images/audiocovers/2021_May/acov_tid350378_thumb.jpg)

*Artist: Voin Grim
*Album: An Eldest Throne Of Profane Fortress [ep]
*Year: 2021
*Genre: Atmospheric Black Metal
*Country: Ukraine (IMG:https://metalarea.org/forum/style_images/flags/Ukraine.png)
*Format: mp3@CBR320kbps
*Size: 50MB

Tracklist:
1. An Eldest Throne of Profane Fortress 11:09
2. Materialized in Stone 05:14
3. Hoarfrost Under a Starry Path 05:11
******************************
Total playing time: 21:34

Metal Archives
(IMG:https://metalarea.org/images/youtube.png)



Technical info
(IMG:https://metalarea.org/images/spectrogram/2021_May/44e57b851cbd519f403cda21a0a6bd3a.png)
Input File: Voin Grim - An Eldest Throne Of Profane Fortress.mp3
Channels : 2
Sample Rate : 44100
Precision : 16-bit
Duration : 00:11:09.69 = 29533197 samples = 50226.5 CDDA sectors
File Size : 26.8M
Bit Rate : 320k
Sample Encoding: MPEG audio (layer I, II or III)
Comments :
Title=An Eldest Throne of Profane Fortress
Artist=Voin Grim
Album=An Eldest Throne of Profane Fortress
Tracknumber=1
Year=2021
Genre=Atmospheric Black Metal



Register


Go to the top of the page
  Insert nick Quick quote
+Quote Post

Reply to this topicStart new topic
2 User(s) are reading this topic (2 Guests and 0 Anonymous Users)
0 Members:

 



- Lo-Fi Version Support form
Copyrights and abuse reports form
Time is now: 19th June 2021 - 10:46:17