Welcome Guest ( Log In | Register )

> Releases Upload / Добавление релизов

Добавить релиз тут / Click here to add release
Рекомендованные обменники / Recommended file shares

> Ewig Frost - Aïn't No Saïnt (2021), Blackened Speed Metal/Punk'n'roll (D6)
post May 3 2021, 01:07:31
Post #1

Правь статус, ####!111
**************
Group: Металариец
Posts: 26,064
Releases: 18713
From: Г.Харьков
On Forums: 9 years 1 week
Thanks: 371087 time(s)
Unknown


(IMG:https://metalarea.org/images/audiocovers/2021_May/acov_tid350379_thumb.jpg)

*Artist: Ewig Frost
*Album: Aïn't No Saïnt
*Year: 2021
*Genre: Blackened Speed Metal/Punk'n'roll
*Country: Austria (IMG:https://metalarea.org/forum/style_images/flags/Austria.png)
*Format: mp3@CBR320kbps
*Size: 65MB

Tracklist:
1. Into the Night 01:38
2. In da Not (frisst da Teife de Fliagn) 01:58
3. Satan II 02:32
4. New Cold War 03:13
5. 1918 06:18
6. De Gier (is a Luada) 03:23
7. Bad Beat Boogie 02:52
8. Back on Wheels 01:54
9. Desert Sunset 01:08
10. Mary Jane 03:13
******************************
Total playing time: 28:09




Extended info
Niitro Vocals, Guitars, Percussion
Jürgen Schallauer Bass
Chris Pruckner Drums



Technical info
(IMG:https://metalarea.org/images/spectrogram/2021_May/23dd2dca5ed37d7426692b661ddd63de.png)
Input File: 05 - 1918.mp3
Channels : 2
Sample Rate : 44100
Precision : 16-bit
Duration : 00:06:18.00 = 16669800 samples = 28350 CDDA sectors
File Size : 15.3M
Bit Rate : 323k
Sample Encoding: MPEG audio (layer I, II or III)
Comments :
Title=1918
Artist=Ewig Frost
Album=Ain't No Saint
Tracknumber=5
Year=2021-04-30
Discnumber=1



Register


Go to the top of the page
  Insert nick Quick quote
+Quote Post
 
Start new topic
Replies (1 - 3)
post May 8 2021, 10:29:00
Post #2

brutalcesar
**************
Group: Металариец
Posts: 18,187
Releases: 70
From: Рязань
On Forums: 12 years 3 months
Thanks: 10201 time(s)
Russian Federation


Что-то ни капли злобы и агрессии тут не чувствуется. Не такой должен быть этот жанр (IMG:style_emoticons/default/25.gif)
Go to the top of the page
  Insert nick Quick quote
+Quote Post
post May 8 2021, 11:24:29
Post #3

Old School Metal
**************
Group: Металариец
Posts: 3,761
Releases: 0
From: г. Минск
On Forums: 12 years 1 month
Thanks: 8687 time(s)
Belarus


Lossless: FLAC (tracks)
Register
Go to the top of the page
  Insert nick Quick quote
+Quote Post
post May 13 2021, 14:44:46
Post #4

0%Tolerance
*********
Group: Металариец
Posts: 967
Releases: 0
On Forums: 8 years 8 months
Thanks: 175 time(s)
Unknown


ЦИТАТА(cesar @ May 8 2021, 10:29:00) *
Что-то ни капли злобы и агрессии тут не чувствуется. Не такой должен быть этот жанр (IMG:style_emoticons/default/25.gif)

Какой жанр? Рог/рогенролл, что стафф исполняют. (IMG:style_emoticons/default/1488.gif)
Картинка на облоге клёвая.
Go to the top of the page
  Insert nick Quick quote
+Quote Post

Reply to this topicStart new topic
2 User(s) are reading this topic (2 Guests and 0 Anonymous Users)
0 Members:

 



- Lo-Fi Version Support form
Copyrights and abuse reports form
Time is now: 18th May 2021 - 01:33:44