Welcome Guest ( Log In | Register )

> Releases Upload / Добавление релизов

Добавить релиз тут / Click here to add release
Рекомендованные обменники / Recommended file shares

 
Reply to this topicStart new topic
> Seven Ravens - Barely Hanging On (2021), Heavy Metal/Hard Rock
post May 3 2021, 01:48:50
Post #1

Правь статус, ####!111
**************
Group: Металариец
Posts: 26,064
Releases: 18713
From: Г.Харьков
On Forums: 9 years 1 week
Thanks: 371101 time(s)
Unknown


(IMG:https://metalarea.org/images/audiocovers/2021_May/acov_tid350380_thumb.jpg)

*Artist: Seven Ravens
*Album: Barely Hanging On
*Year: 2021
*Genre: Heavy Metal/Hard Rock
*Country: International (IMG:https://metalarea.org/forum/style_images/flags/International.png)
*Format: mp3@CBR320kbps
*Size: 119MB

Tracklist:
01. Wouldn’t Change A Thing
02. Wake Up
03. Keep A Light On
04. Cold
05. Barely Hanging On
06. Prove Me Wrong
07. Buried Alive
08. Web of Lies
09. Playing With Fire
10. Time Is A Thief
11. Down In Flames
******************************
Total playing time: 51:27

(IMG:https://metalarea.org/images/youtube.png)
(IMG:https://metalarea.org/images/youtube.png)

Extended info
Michael Bormann (Jaded Heart, Bonfire, Silent Force) - vocals
Tony Franklin (The Firm, Blue Murder) - bass
Donnie Van Stavern (Riot, Alcatrazz) - bass
Bobby Jarzombek (Riot, Rob Halford, Sebastian Bach) - drums
Matt Starr (Mr. Big, Ace Frehley, Black Swan) - drums
Kevin Soffera (Seether, Breaking Benjamin) - drums
James Lepak - guitars


Technical info
(IMG:https://metalarea.org/images/spectrogram/2021_May/b965ad548456fe15d9a7490e09861364.png)
Input File: 07 - Buried Alive.mp3
Channels : 2
Sample Rate : 44100
Precision : 16-bit
Duration : 00:04:51.00 = 12833100 samples = 21825 CDDA sectors
File Size : 11.8M
Bit Rate : 324k
Sample Encoding: MPEG audio (layer I, II or III)
Comments :
Title=Buried Alive
Artist=Seven Ravens
Album=Barely Hanging On
Tracknumber=7
Year=2021-05-03
Genre=Metal
Discnumber=1



Register


Go to the top of the page
  Insert nick Quick quote
+Quote Post

Reply to this topicStart new topic
1 User(s) are reading this topic (1 Guests and 0 Anonymous Users)
0 Members:

 



- Lo-Fi Version Support form
Copyrights and abuse reports form
Time is now: 18th May 2021 - 03:25:17