Welcome Guest ( Log In | Register )

> Releases Upload / Добавление релизов

Добавить релиз тут / Click here to add release
Рекомендованные обменники / Recommended file shares

> Rüyyn - Rüyyn [ep] (2021), Atmospheric Black Metal
post May 3 2021, 02:23:42
Post #1

Malum dominus omnium
****
Group: Металариец
Posts: 338
Releases: 249
On Forums: 1 year 2 months
Thanks: 4893 time(s)
Vatican City


(IMG:https://metalarea.org/images/audiocovers/2021_May/acov_tid350381_thumb.jpg)

*Artist: Rüyyn
*Album: Rüyyn [ep]
*Year: 2021
*Genre: Atmospheric Black Metal
*Country: France (IMG:https://metalarea.org/forum/style_images/flags/France.png)
*Format: mp3@CBR320kbps
*Size: 67MB

Tracklist:
1. I 09:46
2. II 05:43
3. III 05:18
4. IV 07:25
5. ..... 00:50
******************************
Total playing time: 29:02


(IMG:https://metalarea.org/images/youtube.png)

Instagram

Technical info
(IMG:https://metalarea.org/images/spectrogram/2021_May/4d74540eaf25ebe1eaa0b999206d29f4.png)
Input File: RüYYn - I.mp3
Channels : 2
Sample Rate : 44100
Precision : 16-bit
Duration : 00:09:46.69 = 25873029 samples = 44001.8 CDDA sectors
File Size : 23.5M
Bit Rate : 320k
Sample Encoding: MPEG audio (layer I, II or III)
Comments :
Title=I
Artist=RüYYn
Album=RüYYn
Tracknumber=1
Year=2021
Genre=Atmospheric Black Metal



Register


Go to the top of the page
  Insert nick Quick quote
+Quote Post
 
Start new topic
Replies (1 - 4)
post May 3 2021, 18:31:55
Post #2

Group: Подсевший
Posts: 27
Releases: 0
On Forums: 11 years 9 months
Thanks: 16 time(s)
Unknown


FLAC?
Go to the top of the page
  Insert nick Quick quote
+Quote Post
post May 3 2021, 18:36:37
Post #3

I hate you all
**************
Group: Металариец
Posts: 2,572
Releases: 82
From: Ukraine
On Forums: 14 years 1 week
Thanks: 6566 time(s)
Ukraine


Отменная епишка !!!
Go to the top of the page
  Insert nick Quick quote
+Quote Post
post May 3 2021, 18:52:00
Post #4

Маньяк
**********
Group: Металариец
Posts: 1,439
Releases: 0
From: Russian Federation - St.Petersburg
On Forums: 12 years 2 months
Thanks: 390 time(s)
Russian Federation


Вещь! (IMG:style_emoticons/default/h27001.gif)
Go to the top of the page
  Insert nick Quick quote
+Quote Post
post May 5 2021, 12:15:14
Post #5

Group: Дух
Posts: 9
Releases: 0
On Forums: 3 years 8 months
Thanks: 3 time(s)
Unknown


If you ever hear the words "black metal" and "France" in the same sentence, you can be 99% sure it's something great, or, at least, worth listening.
Go to the top of the page
  Insert nick Quick quote
+Quote Post

Reply to this topicStart new topic
1 User(s) are reading this topic (1 Guests and 0 Anonymous Users)
0 Members:

 



- Lo-Fi Version Support form
Copyrights and abuse reports form
Time is now: 18th May 2021 - 01:32:26