Welcome Guest ( Log In | Register )

> Releases Upload / Добавление релизов

Добавить релиз тут / Click here to add release
Рекомендованные обменники / Recommended file shares

 
Reply to this topicStart new topic
> Insect Warfare - Entomological Siege [compilation] (2019), Grindcore (D)
post May 3 2021, 03:55:54
Post #1

Маньяк
**********
Group: Металариец
Posts: 1,236
Releases: 444
On Forums: 10 years 5 months
Thanks: 9537 time(s)
Italy


(IMG:https://metalarea.org/images/audiocovers/2021_May/acov_tid350382_thumb.jpg)

*Artist: Insect Warfare
*Album: Entomological Siege [compilation]
*Year: 2019
*Genre: Grindcore
*Country: United States (IMG:https://metalarea.org/forum/style_images/flags/United%20States.png)
*Format: mp3@VBR277kbps
*Size: 270MB

Tracklist:
Disc 1
1.But Now You Die 00:43
2.Hurricane Death 01:00
3.Amphetamine Psychosis 00:52
4.Negative Appeal 00:39
5.Death to False Grind 01:05
6.At War with Grindcore 01:13
7.After War Obliteration 01:51
8.Freebase Diarrhea 00:46
9.Amphetamine Phychosis 00:51
10.Destroyed by Tanks 00:48
11.Human Slaughterhouse 00:50
12.Death to False Grind 01:01
13.Brain Infestation 00:30
14.At War with Grindcore 01:10
15. Untitled 00:33
16.Punk Off and Die 01:04
17.Fucked Up on PCP 01:19
18.Engulfed in Fire 01:00
19.In Grind There Is No Law 01:38
20.Into the Crypt of Rays (Celtic Frost cover) 02:53
21.Repulsed by Radiation 02:41
22.Law of the Saw 00:51
23.Bestial Destruction 01:36
24.Chainsaw Justice 01:09
25.Execution Mania 00:56
26.Command of the Guillotine 00:28
27.Behind Bars (Razor cover) 02:11
28.Negative Appeal 00:41
29.Obscene Creed 00:33
30.Reanimated Horde 00:46
31.But Now You Die 00:44
32.Hurricane Death 01:03
33.Mind Ripper 01:27
34.Pestilent Excruciation 01:31
35.City of Enemies 01:12
36.False Grind Alienation 00:02
37.Evolved into Obliteration 01:13
38.Self Termination 01:32
39.Paranoia 01:24
40.Human Trafficking 01:26
41.Street Sweeper 00:18
42.Enslaved by Machinery 01:17
43.Necessary Death 00:55
44.Dead Inside 01:08
45.Hydraphobia 01:43
46.Caught in a Dream (Napalm Death cover) 01:30
47.Law of the Saw 01:02
48.After War Obliteration 01:54
49.Oxygen Corrosion 00:51
50.Zone Killer 00:23
51.Enslaved by Machinery 01:11
52.Street Sweeper 00:18
53.Manipulator 01:49
54.Necessary Death 01:07
55.Dead Inside 01:04
56.Mind Ripper 01:44
57.Armoured Virus 01:13
58.Negative Appeal 00:53
59.Decontamination 01:09
60.Protection Maze 00:57
61.Caught in a Dream (Napalm Death cover) 01:30
62.After War Obliteration 01:48
Disc 2
1.Mind Ripper 01:34
2.Pestilent Excruciation 01:34
3.City of Enemies 01:07
4.False Grind Alienation 00:04
5.Human Virus Ballistic 00:24
6.Technology War 00:27
7.Corporation Life Form 00:20
8.Digital Target 00:40
9.F.T.L. 00:15
10.Deception Fortress 00:23
11.Coded Steel 00:06
12.Information Economy 01:25
13.Cellgraft 00:26
14.Disassembler 01:49
15.Cancer of Oppression 01:32
16.Hypothermia 00:33
17.Blood Wind 00:32
18.Burning Chrome 00:42
19.Thermal Imaging 00:45
20.Circuit Demon 01:25
21.New Rotation (324 cover) 00:39
22.Death Gate 01:09
23.53 Untitled Tracks 08:49
24.Repulsed by Radiation 02:25
25.Human Slaughterhouse 00:55
26.Fucked Up on PCP 01:25
27.In Grind There Is No Law 01:45
28.Chainsaw Justice 01:13
29.Execution Mania 00:58
30.Negative Appeal 00:41
31.Obscene Creed 00:35
32.Command of the Guillotine 00:31
33.Into the Crypt of Rays (Celtic Frost cover) 02:44
34.Law of the Saw 01:01
35.After War Obliteration 01:52
36.Behind Bars (Razor cover) 02:14
37.Mind Ripper 01:38
38.Pestilent Excruciation 01:44
39.Self Termination 01:51
40.Human Trafficking 01:16
41.Hydraphobia 01:40
42.Execution Mania 01:05
42.Mind Ripper 01:29
44.False Grind Alienation 00:10
45.Necessary Death 01:10
46.Paranoia 01:27
47.Dead Inside 01:03
48.Ensalved by Machinery 01:25
49.Negative Appeal 00:52
50.Zone Killer 00:35
51.Fuck This Life 00:13
52.Caught in a Dream (Napalm Death cover) 01:40
53.After War Obliteration 01:50
******************************
Total playing time: 2:17:03

Extended info
CD1
Tracks 1-6 taken from ''Gulf Coast Infestation'' Demo (2004)
Tracks 7-14 taken from ''At War with Grindcore'' EP (2005)
Track 15 is untitled and was previously unreleased.
Track 16 is a compilation track from ''Gulf Coast Infestation'' Demo (2004)
Tracks 17-19 taken from split EP with Bolt Stein (2006)
Track 20 is an outtake from the split with Bolt Stein (2006)
Tracks 21-27 taken from "Endless Execution Thru Violent Restitution" compilation (2006)
Tracks 28-32 taken from split EP with Hatred Surge (2006)
Tracks 33-36 taken from split EP with Carcass Grinder (2007)
Tracks 37-46 taken from ''Evolved into Obliteration'' EP (2007)
Tracks 47-48 taken from ''Trapped in a Scene'' Compilation (2007)
Tracks 49-62 recorded live at KJFC Radio with Unholy Grave

CD2
Tracks 1-4 taken from an alternative recording of split EP with Carcass Grinder (2006)
Tracks 5-11 taken from split EP with Agoraphobic Nosebleed (2008)
Tracks 12-15 taken from ''This Comp Kills Fascists'' Compilation (2008)
Tracks 16-21 taken from split with Flagitious Idiosyncrasy in the Dilapidation (2008)
Track 22 taken from "Grind Bastards #2" compilation
Track 23 taken from ''Noise Grind Power Death'' EP (2009)
Tracks 24-38 recorded live at Kurx 91.7 Austin Live Radio


Technical info
(IMG:https://metalarea.org/images/spectrogram/2021_May/d1c5c7bd2ef8a1ee12802b59330e1ae2.png)
Input File: 103-insect_warfare-amphetamine_psychosis.mp3
Channels : 2
Sample Rate : 44100
Precision : 16-bit
Duration : 00:00:54.05 = 2383473 samples = 4053.53 CDDA sectors
File Size : 2.03M
Bit Rate : 301k
Sample Encoding: MPEG audio (layer I, II or III)
Comments :
Title=Amphetamine Psychosis
Artist=Insect Warfare
Album=Entomological Siege 2004/2009
Tracknumber=3/62
Year=2019-00-00
Genre=Death Metal
Discnumber=1/2



Register


Go to the top of the page
  Insert nick Quick quote
+Quote Post

Reply to this topicStart new topic
1 User(s) are reading this topic (1 Guests and 0 Anonymous Users)
0 Members:

 



- Lo-Fi Version Support form
Copyrights and abuse reports form
Time is now: 18th May 2021 - 01:49:22