Welcome Guest ( Log In | Register )

> Releases Upload / Добавление релизов

Добавить релиз тут / Click here to add release
Рекомендованные обменники / Recommended file shares

 
Reply to this topicStart new topic
> Hunting The Heritage - Existence Of The Corrupted [ep] (2019), Black/Death Metal
post May 3 2021, 09:24:26
Post #1

Правь статус, ####!111
**************
Group: Металариец
Posts: 4,602
Releases: 282
From: MoscoW
On Forums: 14 years 5 months
Thanks: 5189 time(s)
Russian Federation


(IMG:https://metalarea.org/images/audiocovers/2021_May/acov_tid350384_thumb.jpg)

*Artist: Hunting The Heritage
*Album: Existence Of The Corrupted [ep]
*Year: 2019
*Genre: Black/Death Metal
*Country: Germany (IMG:https://metalarea.org/forum/style_images/flags/Germany.png)
*Format: mp3@CBR320kbps
*Size: 39MB

Tracklist:
01. Existence Of The Corrupted 06:06
02. Reinforcing People In The Mistaken Belief 05:29
03. Fallen From The Faith 05:05
******************************
Total playing time: 16:40

Extended info




Technical info
(IMG:https://metalarea.org/images/spectrogram/2021_May/6d26462769a64c8364aafb04b036e4a6.png)
Input File: 01. Existence Of The Corrupted.mp3
Channels : 2
Sample Rate : 44100
Precision : 16-bit
Duration : 00:06:06.65 = 16169353 samples = 27498.9 CDDA sectors
File Size : 14.8M
Bit Rate : 323k
Sample Encoding: MPEG audio (layer I, II or III)
Comments :
Title=Existence of the Corrupted
Artist=Hunting the Heritage
Album=Existence of the Corrupted
Tracknumber=1
Year=2019



Register


Go to the top of the page
  Insert nick Quick quote
+Quote Post

Reply to this topicStart new topic
1 User(s) are reading this topic (1 Guests and 0 Anonymous Users)
0 Members:

 



- Lo-Fi Version Support form
Copyrights and abuse reports form
Time is now: 18th May 2021 - 02:26:23