Welcome Guest ( Log In | Register )

> Releases Upload / Добавление релизов

Добавить релиз тут / Click here to add release
Рекомендованные обменники / Recommended file shares

 
Reply to this topicStart new topic
> Valkynaz - Tamrielic Lore [ep] (2011), Raw Black Metal (D)
post May 3 2021, 09:38:26
Post #1

Правь статус, ####!111
**************
Group: Металариец
Posts: 4,602
Releases: 282
From: MoscoW
On Forums: 14 years 5 months
Thanks: 5189 time(s)
Russian Federation


(IMG:https://metalarea.org/images/audiocovers/2021_May/acov_tid350385_thumb.jpg)

*Artist: Valkynaz
*Album: Tamrielic Lore [ep]
*Year: 2011
*Genre: Raw Black Metal
*Country: United States (IMG:https://metalarea.org/forum/style_images/flags/United%20States.png)
*Format: mp3@CBR320kbps
*Size: 80MB

Tracklist:
01. Oblivion (Instrumental) 01:02
02. 2920, Frostfall 08:54
03. Solstheim 14:12
04. Chaotic Forest Paths 04:29
05. March Ov The Dwemer (Instrumental) 04:53
06. Sons Ov Skyrim (Jeremy Soule Cover) (Instrumental) 02:19
******************************
Total playing time: 35:49

Extended info



Technical info
(IMG:https://metalarea.org/images/spectrogram/2021_May/1c46285fd44700aa068d0887cde94b62.png)
Input File: 01. Oblivion (Instrumental).mp3
Channels : 1
Sample Rate : 44100
Precision : 16-bit
Duration : 00:01:02.02 = 2734994 samples = 4651.35 CDDA sectors
File Size : 2.55M
Bit Rate : 329k
Sample Encoding: MPEG audio (layer I, II or III)
Comments :
Title=Oblivion
Artist=Valkynaz
Album=Tamrielic Lore
Tracknumber=1
Year=2011



Register


Go to the top of the page
  Insert nick Quick quote
+Quote Post

Reply to this topicStart new topic
1 User(s) are reading this topic (1 Guests and 0 Anonymous Users)
0 Members:

 



- Lo-Fi Version Support form
Copyrights and abuse reports form
Time is now: 18th May 2021 - 02:37:16