Welcome Guest ( Log In | Register )

> И неформату есть предел.

Рэп/хип-хоп/шансон/поп удаляются. Для них есть свои порталы.

 
Reply to this topicStart new topic
> Metalblack - When The Night Conquers Light (2021), Ambient/Dungeon Synth (D)
post May 3 2021, 10:50:37
Post #1

gazing the void
**
Group: Завсегдатай
Posts: 163
Releases: 2
On Forums: 4 years 1 month
Thanks: 161 time(s)
Zimbabwe


(IMG:http://metalarea.org/images/audiocovers/2021_May/acov_tid350387_thumb.jpg)

*Artist: Metalblack
*Album: When The Night Conquers Light
*Year: 2021
*Genre: Ambient/Dungeon Synth
*Country: Russian Federation (IMG:http://metalarea.org/forum/style_images/flags/Russian%20Federation.png)
*Format: mp3@CBR320kbps
*Size: 180MB

Tracklist:
01. Too Early for Snow
02. It Was Cold
03. Only Darkness Remains
04. The Night Has Not Gone
05. The Last Stronghold
06. Under the Hood
07. The Magic Turned Black
08. Enslaved by Darkness
09. Wandering Shadow
10. The Children of Morgoth
11. Drums of War
12. Victory or Death
13. The Glimmering Between Trees
14. Horned Race
15. The Shadow Path
16. Somewhere in the Nethermost Profound
******************************
Total playing time: 1:18:46

Extended info


Technical info
(IMG:http://metalarea.org/images/spectrogram/2021_May/a1f1a7cf139a1c72fa967302f8c04e28.png)
Input File: 02. It Was Cold.mp3
Channels : 2
Sample Rate : 44100
Precision : 16-bit
Duration : 00:05:33.27 = 14696987 samples = 24994.9 CDDA sectors
File Size : 13.3M
Bit Rate : 320k
Sample Encoding: MPEG audio (layer I, II or III)
Comments :
Title=It Was Cold
Artist=MetalBlack
Album=When the Night Conquers Light
Tracknumber=2



Register


Go to the top of the page
  Insert nick Quick quote
+Quote Post
post May 3 2021, 16:04:25
Post #2

Четыре Литра
****
Group: Металариец
Posts: 389
Releases: 0
On Forums: 12 years 2 weeks
Thanks: 105 time(s)
Russian Federation


пожалуйста, дайте ссылку на другой обменник
Go to the top of the page
  Insert nick Quick quote
+Quote Post
post May 3 2021, 16:32:53
Post #3

gazing the void
**
Group: Завсегдатай
Posts: 163
Releases: 2
On Forums: 4 years 1 month
Thanks: 161 time(s)
Zimbabwe


Register


Thanks:
Go to the top of the page
  Insert nick Quick quote
+Quote Post

Reply to this topicStart new topic
1 User(s) are reading this topic (1 Guests and 0 Anonymous Users)
0 Members:

 



- Lo-Fi Version Support form
Copyrights and abuse reports form
Time is now: 17th June 2021 - 23:41:37