Welcome Guest ( Log In | Register )

> Releases Upload / Добавление релизов

Добавить релиз тут / Click here to add release
Рекомендованные обменники / Recommended file shares

 
Reply to this topicStart new topic
> Terra Deep - Black Water Come [single] (2012), Black Metal (D8)
post May 3 2021, 11:16:37
Post #1

Правь статус, ####!111
**************
Group: Металариец
Posts: 4,602
Releases: 282
From: MoscoW
On Forums: 14 years 5 months
Thanks: 5189 time(s)
Russian Federation


(IMG:https://metalarea.org/images/audiocovers/2021_May/acov_tid350390_thumb.jpg)

*Artist: Terra Deep
*Album: Black Water Come [single]
*Year: 2012
*Genre: Black Metal
*Country: United States (IMG:https://metalarea.org/forum/style_images/flags/United%20States.png)
*Format: mp3@CBR320kbps
*Size: 9MB

Tracklist:
01. Black Water Come 05:03
******************************
Total playing time: 5:03

Extended info




Technical info
(IMG:https://metalarea.org/images/spectrogram/2021_May/4e661cc99019c9857170c8eba3102b3f.png)
Input File: 01. Black Water Come.mp3
Channels : 2
Sample Rate : 44100
Precision : 16-bit
Duration : 00:05:03.35 = 13377735 samples = 22751.3 CDDA sectors
File Size : 12.3M
Bit Rate : 325k
Sample Encoding: MPEG audio (layer I, II or III)
Comments :
Title=Black Water Come
Artist=Terra Deep
Year=2012



Register


Go to the top of the page
  Insert nick Quick quote
+Quote Post

Reply to this topicStart new topic
2 User(s) are reading this topic (2 Guests and 0 Anonymous Users)
0 Members:

 



- Lo-Fi Version Support form
Copyrights and abuse reports form
Time is now: 18th May 2021 - 02:08:36