Welcome Guest ( Log In | Register )

> Releases Upload / Добавление релизов

Добавить релиз тут / Click here to add release
Рекомендованные обменники / Recommended file shares

> Solium - Dämonstration Der Hexenmacht [demo] (2017), Black Metal
post May 3 2021, 11:51:05
Post #1

𝕻𝕬𝕹𝕬𝕮𝕰𝕬
*********
Group: Металариец
Posts: 922
Releases: 544
On Forums: 8 years 11 months
Thanks: 9760 time(s)
Unknown


(IMG:https://metalarea.org/images/audiocovers/2021_May/acov_tid350391_thumb.jpg)

*Artist: Solium
*Album: Dämonstration Der Hexenmacht [demo]
*Year: 2017
*Genre: Black Metal
*Country: Poland (IMG:https://metalarea.org/forum/style_images/flags/Poland.png)
*Format: mp3@CBR320kbps
*Size: 21MB

Tracklist:
1. In The Cover Of Darkness 03:53
2. Wolfspell 03:08
3. Black Winds Over Asphodel Fields 02:08
******************************
Total playing time: 9:09



Technical info
(IMG:https://metalarea.org/images/spectrogram/2021_May/e2b18382fa778b7d60b26f2c07fef584.png)
Input File: 02 - Wolfspell.mp3
Channels : 2
Sample Rate : 44100
Precision : 16-bit
Duration : 00:03:09.04 = 8336444 samples = 14177.6 CDDA sectors
File Size : 7.72M
Bit Rate : 327k
Sample Encoding: MPEG audio (layer I, II or III)
Comments :
Title=Wolfspell
Artist=Solium
Album=Dämonstration Der Hexenmacht
Tracknumber=2
Year=2017
Genre=Black Metal



Register


Go to the top of the page
  Insert nick Quick quote
+Quote Post
 
Start new topic
Replies (1 - 1)
post May 4 2021, 10:14:38
Post #2

Маньяк
**********
Group: Металариец
Posts: 1,018
Releases: 0
From: Цимлянск
On Forums: 6 years 11 months
Thanks: 283 time(s)
Russian Federation


https://www.metal-archives.com/bands/Solium/3540429527
Go to the top of the page
  Insert nick Quick quote
+Quote Post

Reply to this topicStart new topic
2 User(s) are reading this topic (2 Guests and 0 Anonymous Users)
0 Members:

 



- Lo-Fi Version Support form
Copyrights and abuse reports form
Time is now: 18th May 2021 - 02:24:59