Welcome Guest ( Log In | Register )

> Releases Upload / Добавление релизов

Добавить релиз тут / Click here to add release
Рекомендованные обменники / Recommended file shares

> Solium - Urwerk [ep] (2020), Black Metal
post May 3 2021, 11:56:07
Post #1

𝕻𝕬𝕹𝕬𝕮𝕰𝕬
*********
Group: Металариец
Posts: 922
Releases: 544
On Forums: 8 years 11 months
Thanks: 9760 time(s)
Unknown


(IMG:https://metalarea.org/images/audiocovers/2021_May/acov_tid350392_thumb.jpg)

*Artist: Solium
*Album: Urwerk [ep]
*Year: 2020
*Genre: Black Metal
*Country: Poland (IMG:https://metalarea.org/forum/style_images/flags/Poland.png)
*Format: mp3@CBR320kbps
*Size: 47MB

Tracklist:
1. From The Womb Of Death 05:52
2. Cold Grave Of The North 05:21
3. Under The Horned Moon 04:34
4. Darkness! Darkness! 04:15
******************************
Total playing time: 20:02



Technical info
(IMG:https://metalarea.org/images/spectrogram/2021_May/e95cb6098bc6b24166816f362fccc975.png)
Input File: 04 - Darkness! Darkness!.mp3
Channels : 2
Sample Rate : 44100
Precision : 16-bit
Duration : 00:04:16.04 = 11291496 samples = 19203.2 CDDA sectors
File Size : 10.5M
Bit Rate : 327k
Sample Encoding: MPEG audio (layer I, II or III)
Comments :
Title=Darkness! Darkness!
Artist=Solium
Album=Urwerk
Tracknumber=4
Year=2020
Genre=Black Metal



Register


Go to the top of the page
  Insert nick Quick quote
+Quote Post
 
Start new topic
Replies (1 - 3)
post May 3 2021, 17:18:47
Post #2

Маньяк
**********
Group: Металариец
Posts: 1,458
Releases: 0
From: Canada
On Forums: 8 years 6 months
Thanks: 902 time(s)
Canada


Is this wrong? From EM:

Country of origin: Germany
Location: Dreieich, Hesse
Go to the top of the page
  Insert nick Quick quote
+Quote Post
post May 3 2021, 17:25:31
Post #3

𝕻𝕬𝕹𝕬𝕮𝕰𝕬
*********
Group: Металариец
Posts: 922
Releases: 544
On Forums: 8 years 11 months
Thanks: 9760 time(s)
Unknown


QUOTE(rickzammuto @ May 3 2021, 17:18:47) *
Is this wrong? From EM:

Country of origin: Germany
Location: Dreieich, Hesse

Solium is Tomasz Hanuszkiewicz's (Throneum, Morbid Execution, Necrostuprum, Urwerk) project, as far as i know this guy is from Poland.
Even if he is relocated to Germany the country of origin still should be Poland.
Go to the top of the page
  Insert nick Quick quote
+Quote Post
post May 4 2021, 10:14:22
Post #4

Маньяк
**********
Group: Металариец
Posts: 1,018
Releases: 0
From: Цимлянск
On Forums: 6 years 11 months
Thanks: 283 time(s)
Russian Federation


https://www.metal-archives.com/bands/Solium/3540429527
Go to the top of the page
  Insert nick Quick quote
+Quote Post

Reply to this topicStart new topic
1 User(s) are reading this topic (1 Guests and 0 Anonymous Users)
0 Members:

 



- Lo-Fi Version Support form
Copyrights and abuse reports form
Time is now: 18th May 2021 - 02:56:51