Welcome Guest ( Log In | Register )

> Releases Upload / Добавление релизов

Добавить релиз тут / Click here to add release
Рекомендованные обменники / Recommended file shares

> Solium - The Styx Is Witching Me (2017), Black Metal
post May 3 2021, 11:59:52
Post #1

𝕻𝕬𝕹𝕬𝕮𝕰𝕬
*********
Group: Металариец
Posts: 922
Releases: 544
On Forums: 8 years 11 months
Thanks: 9760 time(s)
Unknown


(IMG:https://metalarea.org/images/audiocovers/2021_May/acov_tid350393_thumb.jpg)

*Artist: Solium
*Album: The Styx Is Witching Me
*Year: 2017
*Genre: Black Metal
*Country: Poland (IMG:https://metalarea.org/forum/style_images/flags/Poland.png)
*Format: mp3@CBR320kbps
*Size: 86MB

Tracklist:
1. In The Cover Of Darkness 03:49
2. Wolfspell 03:08
3. Black Winds Over Asphodel Fields 02:07
4. Blood Moon Rites 03:32
5. The Styx 03:22
6. Cacomorphism 04:23
7. Daemoonstrance Of The Witch 05:25
8. Hate 03:16
9. Stone To Stone 03:41
10. The Truth 03:42
******************************
Total playing time: 36:25



Technical info
(IMG:https://metalarea.org/images/spectrogram/2021_May/689da2d2f036d23f2a9a478705e268de.png)
Input File: 08 - Hate.mp3
Channels : 2
Sample Rate : 44100
Precision : 16-bit
Duration : 00:03:16.19 = 8652111 samples = 14714.5 CDDA sectors
File Size : 8.13M
Bit Rate : 332k
Sample Encoding: MPEG audio (layer I, II or III)
Comments :
Title=Hate
Artist=Solium
Album=The Styx Is Witching Me
Tracknumber=8
Year=2017
Genre=Black Metal



Register


Go to the top of the page
  Insert nick Quick quote
+Quote Post
 
Start new topic
Replies (1 - 1)
post May 4 2021, 10:13:24
Post #2

Маньяк
**********
Group: Металариец
Posts: 1,018
Releases: 0
From: Цимлянск
On Forums: 6 years 11 months
Thanks: 283 time(s)
Russian Federation


Country: Germany
https://www.metal-archives.com/bands/Solium/3540429527
Go to the top of the page
  Insert nick Quick quote
+Quote Post

Reply to this topicStart new topic
1 User(s) are reading this topic (1 Guests and 0 Anonymous Users)
0 Members:

 



- Lo-Fi Version Support form
Copyrights and abuse reports form
Time is now: 18th May 2021 - 03:06:16