Welcome Guest ( Log In | Register )

> Releases Upload / Добавление релизов

Добавить релиз тут / Click here to add release
Рекомендованные обменники / Recommended file shares

> Ifernach - Four Fatal Amulets [ep] (2021), Black Metal (D)
post May 3 2021, 12:06:26
Post #1

𝕻𝕬𝕹𝕬𝕮𝕰𝕬
*********
Group: Металариец
Posts: 922
Releases: 544
On Forums: 8 years 11 months
Thanks: 9760 time(s)
Unknown


(IMG:https://metalarea.org/images/audiocovers/2021_May/acov_tid350394_thumb.jpg)

*Artist: Ifernach
*Album: Four Fatal Amulets [ep]
*Year: 2021
*Genre: Black Metal
*Country: Canada (IMG:https://metalarea.org/forum/style_images/flags/Canada.png)
*Format: mp3@CBR320kbps
*Size: 53MB

Tracklist:
1. The Ice Shield 06:48
2. The Lietuven Star 09:21
3. The Silver Medallion 06:03
4. The Slavic Stone 03:24
******************************
Total playing time: 25:36

Extended info
Limited to 250 copies.
Labelled as a follow-up to "The Green Enchanted Forest Of The Druid Wizard" and a precursor to a fiction book by the artist with the same name as this release.
Pre-orders included two inserts with information regarding the concept of the release and information about the main four songs.
While the artist stated there would be no digital version of this release, a card was enclosed with a link to a digital download which expires 30 days from the release date.
The release also features a fifth track that is unlisted on the disc packaging and it is not included in the artist's digital download.


Technical info
(IMG:https://metalarea.org/images/spectrogram/2021_May/c2c77e7cf6e02f8d8605ca6daad7a357.png)
Input File: 01 - The Ice Shield.mp3
Channels : 2
Sample Rate : 44100
Precision : 16-bit
Duration : 00:06:48.14 = 17998798 samples = 30610.2 CDDA sectors
File Size : 16.4M
Bit Rate : 321k
Sample Encoding: MPEG audio (layer I, II or III)
Comments :
Title=The Ice Shield
Artist=Ifernach
Album=Four Fatal Amulets
Tracknumber=1
Year=2021
Genre=Black Metal



Register


Go to the top of the page
  Insert nick Quick quote
+Quote Post
 
Start new topic
Replies (1 - 1)
post May 6 2021, 06:00:21
Post #2

градусы контрастов
**************
Group: Металариец
Posts: 4,912
Releases: 0
On Forums: 5 years 3 months
Thanks: 3187 time(s)
Unknown


разонравилось мне его нынешнее творчество, пропал куда то запал, видно заблудился в Стране Вечной Охоты.


Thanks:
(1) rimfrost,
Go to the top of the page
  Insert nick Quick quote
+Quote Post

Reply to this topicStart new topic
2 User(s) are reading this topic (2 Guests and 0 Anonymous Users)
0 Members:

 



- Lo-Fi Version Support form
Copyrights and abuse reports form
Time is now: 18th May 2021 - 02:48:46