Welcome Guest ( Log In | Register )

> Releases Upload / Добавление релизов

Добавить релиз тут / Click here to add release
Рекомендованные обменники / Recommended file shares

 
Reply to this topicStart new topic
> Rectal Pus Bakery - Rise Of The Rotten [ep] (2012), Brutal Death Metal
post May 3 2021, 12:54:44
Post #1

Правь статус, ####!111
**************
Group: Металариец
Posts: 4,602
Releases: 282
From: MoscoW
On Forums: 14 years 5 months
Thanks: 5189 time(s)
Russian Federation


(IMG:https://metalarea.org/images/audiocovers/2021_May/acov_tid350396_thumb.jpg)

*Artist: Rectal Pus Bakery
*Album: Rise Of The Rotten [ep]
*Year: 2012
*Genre: Brutal Death Metal
*Country: International (IMG:https://metalarea.org/forum/style_images/flags/International.png)
*Format: mp3@CBR320kbps
*Size: 19MB

Tracklist:
01. Drowning In Sludge 02:05
02. The Word Homophobic Is Gay (Anal Cunt Cover) 00:23
03. Manifestasions Of The Abomination 00:56
04. This DJ Will Destroy Your Anal Cavity With His Discs 00:38
05. Parasympathomimetic Thrombophlebitis 00:02
06. Rudolph The Red Nosed Butcherer 00:26
07. Infected Squid Ball Saucer 00:41
08. Super Poderes De Mierda Explosiva 02:18
******************************
Total playing time: 7:29



Technical info
(IMG:https://metalarea.org/images/spectrogram/2021_May/e8ff8e8ec6003c64e173c9e8ac271003.png)
Input File: 01. Drowning In Sludge.mp3
Channels : 2
Sample Rate : 44100
Precision : 16-bit
Duration : 00:02:05.29 = 5525289 samples = 9396.75 CDDA sectors
File Size : 5.24M
Bit Rate : 334k
Sample Encoding: MPEG audio (layer I, II or III)
Comments :
Title=Drowning In Sludge
Artist=Devouring The Deceased
Album=Rise Of The Rotten
Tracknumber=1
Year=2012



Register


Go to the top of the page
  Insert nick Quick quote
+Quote Post

Reply to this topicStart new topic
1 User(s) are reading this topic (1 Guests and 0 Anonymous Users)
0 Members:

 



- Lo-Fi Version Support form
Copyrights and abuse reports form
Time is now: 18th May 2021 - 01:47:39