Welcome Guest ( Log In | Register )

> И неформату есть предел.

Рэп/хип-хоп/шансон/поп удаляются. Для них есть свои порталы.

 
Reply to this topicStart new topic
> Metalblack - Behind The Gloomy Forest (2020), Ambient/Dungeon Synth (D)
post May 3 2021, 13:33:21
Post #1

gazing the void
**
Group: Завсегдатай
Posts: 166
Releases: 2
On Forums: 4 years 2 months
Thanks: 164 time(s)
Zimbabwe


(IMG:http://metalarea.org/images/audiocovers/2021_May/acov_tid350398_thumb.jpg)

*Artist: Metalblack
*Album: Behind The Gloomy Forest
*Year: 2020
*Genre: Ambient/Dungeon Synth
*Country: Russian Federation (IMG:http://metalarea.org/forum/style_images/flags/Russian%20Federation.png)
*Format: mp3@CBR320kbps
*Size: 117MB

Tracklist:
01. No Human's Land
02. Remains of the Greatness
03. Blacksmith Village
04. The Stone and the Wind
05. Tower Embrasure
06. Last Dance
07. Caves and Tunnels
08. Ancient City of Giants
09. Guards of the King
10. Old Raven
******************************
Total playing time: 51:27



Technical info
(IMG:http://metalarea.org/images/spectrogram/2021_May/84a4d53d766b25f08884a02d8107a213.png)
Input File: 02. Remains of the Greatness.mp3
Channels : 2
Sample Rate : 44100
Precision : 16-bit
Duration : 00:04:10.11 = 11029983 samples = 18758.5 CDDA sectors
File Size : 10.0M
Bit Rate : 320k
Sample Encoding: MPEG audio (layer I, II or III)
Comments :
Title=Remains of the Greatness
Artist=MetalBlack
Album=Behind the Gloomy Forest
Tracknumber=2



Register


Go to the top of the page
  Insert nick Quick quote
+Quote Post

Reply to this topicStart new topic
1 User(s) are reading this topic (1 Guests and 0 Anonymous Users)
0 Members:

 



- Lo-Fi Version Support form
Copyrights and abuse reports form
Time is now: 24th July 2021 - 12:48:19