Welcome Guest ( Log In | Register )

> Releases Upload / Добавление релизов

Добавить релиз тут / Click here to add release
Рекомендованные обменники / Recommended file shares

 
Reply to this topicStart new topic
> Metalblack - Neogod [ep] (2020), Avant-Garde/Atmospheric Black Metal (D)
post May 3 2021, 13:36:41
Post #1

gazing the void
**
Group: Завсегдатай
Posts: 160
Releases: 2
On Forums: 4 years 2 weeks
Thanks: 152 time(s)
Zimbabwe


(IMG:http://metalarea.org/images/audiocovers/2021_May/acov_tid350399_thumb.jpg)

*Artist: Metalblack
*Album: Neogod [ep]
*Year: 2020
*Genre: Avant-Garde/Atmospheric Black Metal
*Country: Russian Federation (IMG:http://metalarea.org/forum/style_images/flags/Russian%20Federation.png)
*Format: mp3@CBR320kbps
*Size: 41MB

Tracklist:
01. Neogod
02. The Shadow of Cain
03. Cybergloom
******************************
Total playing time: 17:53



Technical info
(IMG:http://metalarea.org/images/spectrogram/2021_May/b0ed3a48abafda8f031321695dcbeb74.png)
Input File: 01. Neogod.mp3
Channels : 2
Sample Rate : 44100
Precision : 16-bit
Duration : 00:05:16.38 = 13952226 samples = 23728.3 CDDA sectors
File Size : 12.7M
Bit Rate : 320k
Sample Encoding: MPEG audio (layer I, II or III)
Comments :
Title=Neogod
Artist=MetalBlack
Album=Neogod [EP]
Tracknumber=1



Register


Go to the top of the page
  Insert nick Quick quote
+Quote Post

Reply to this topicStart new topic
2 User(s) are reading this topic (2 Guests and 0 Anonymous Users)
0 Members:

 



- Lo-Fi Version Support form
Copyrights and abuse reports form
Time is now: 18th May 2021 - 01:50:20