Welcome Guest ( Log In | Register )

> Releases Upload / Добавление релизов

Добавить релиз тут / Click here to add release
Рекомендованные обменники / Recommended file shares

> Metalblack - Осколки (2020), Avant-Garde/Atmospheric Black Metal (D)
post May 3 2021, 13:40:18
Post #1

gazing the void
**
Group: Завсегдатай
Posts: 160
Releases: 2
On Forums: 4 years 1 week
Thanks: 149 time(s)
Zimbabwe


(IMG:http://metalarea.org/images/audiocovers/2021_May/acov_tid350400_thumb.jpg)

*Artist: Metalblack
*Album: Осколки
*Year: 2020
*Genre: Avant-Garde/Atmospheric Black Metal
*Country: Russian Federation (IMG:http://metalarea.org/forum/style_images/flags/Russian%20Federation.png)
*Format: mp3@CBR320kbps
*Size: 88MB

Tracklist:
01. Либо-либо
02. Не смотри на меня
03. Белые дороги
04. Слово на букву Л
05. Пуля для себя
06. Пустой
07. Пара грамм
08. Знает ночь
09. Аут
******************************
Total playing time: 38:13



Technical info
(IMG:http://metalarea.org/images/spectrogram/2021_May/f36b8763ecabfeb47f8fedcdbb3f101d.png)
Input File: 01. Либо-либо.mp3
Channels : 2
Sample Rate : 44100
Precision : 16-bit
Duration : 00:04:08.80 = 10971948 samples = 18659.8 CDDA sectors
File Size : 9.95M
Bit Rate : 320k
Sample Encoding: MPEG audio (layer I, II or III)
Comments :
Title=Ëèáî-ëèáî
Artist=MetalBlack
Album=Îñêîëêè
Tracknumber=1



Register


Go to the top of the page
  Insert nick Quick quote
+Quote Post
 
Start new topic
Replies (1 - 3)
post May 4 2021, 16:01:53
Post #2

хаос и порядок
****
Group: Металариец
Posts: 366
Releases: 0
From: Запорожье
On Forums: 11 years 2 weeks
Thanks: 173 time(s)
Ukraine


Депрессив в духе Лайфловера и Психонавтов всяких, попсиходеличнее немного. Годно в общем-то, не совсем моё, правда, не люблю когда сорок минут по одним и тем же нервам.
Авангарда нет, увы.
Go to the top of the page
  Insert nick Quick quote
+Quote Post
post May 5 2021, 04:10:18
Post #3

i listen to black metal
**************
Group: Металариец
Posts: 2,936
Releases: 138
From: Москва
On Forums: 14 years 4 months
Thanks: 2309 time(s)
Russian Federation


очередной альбом в помойку


Thanks:
Go to the top of the page
  Insert nick Quick quote
+Quote Post
post May 7 2021, 03:05:10
Post #4

Четыре Литра
****
Group: Металариец
Posts: 331
Releases: 0
On Forums: 12 years 3 months
Thanks: 263 time(s)
Brazil


ЦИТАТА(Shadechaser @ May 3 2021, 15:40:18) *
08. Знает седая ночь
Go to the top of the page
  Insert nick Quick quote
+Quote Post

Reply to this topicStart new topic
1 User(s) are reading this topic (1 Guests and 0 Anonymous Users)
0 Members:

 



- Lo-Fi Version Support form
Copyrights and abuse reports form
Time is now: 13th May 2021 - 10:47:42