Welcome Guest ( Log In | Register )

 
Reply to this topicStart new topic
> Syphilic Menstruation - Desecration Of Orgasmic Torture [single] (2019), Brutal Death Metal
post May 3 2021, 15:50:30
Post #1

Правь статус, ####!111
**************
Group: Металариец
Posts: 4,537
Releases: 272
From: MoscoW
On Forums: 14 years 5 months
Thanks: 5059 time(s)
Russian Federation


(IMG:https://metalarea.org/images/audiocovers/2021_May/acov_tid350402_thumb.jpg)

*Artist: Syphilic Menstruation
*Album: Desecration Of Orgasmic Torture [single]
*Year: 2019
*Genre: Brutal Death Metal
*Country: United States (IMG:https://metalarea.org/forum/style_images/flags/United%20States.png)
*Format: mp3@CBR128kbps (IMG:https://metalarea.org/images/bit_low.gif)
*Size: 4MB

Tracklist:
01. Desecration Of Orgasmic Torture 03:12
******************************
Total playing time: 3:12



Technical info
(IMG:https://metalarea.org/images/spectrogram/2021_May/35ef6013c53557bb4fc1042eebc36930.png)
Input File: 01. Desecration Of Orgasmic Torture.mp3
Channels : 2
Sample Rate : 44100
Precision : 16-bit
Duration : 00:03:14.19 = 8563603 samples = 14564 CDDA sectors
File Size : 3.11M
Bit Rate : 128k
Sample Encoding: MPEG audio (layer I, II or III)



Register


Thanks:
(1) Olethros,
Go to the top of the page
  Insert nick Quick quote
+Quote Post

Reply to this topicStart new topic
1 User(s) are reading this topic (1 Guests and 0 Anonymous Users)
0 Members:

 



- Lo-Fi Version Support form
Copyrights and abuse reports form
Time is now: 13th May 2021 - 11:08:01