Welcome Guest ( Log In | Register )

> Releases Upload / Добавление релизов

Добавить релиз тут / Click here to add release
Рекомендованные обменники / Recommended file shares

 
Reply to this topicStart new topic
> Syphilic Menstruation - Fornicating In Masticated Placenta [single] (2019), Brutal Death Metal
post May 3 2021, 15:59:41
Post #1

Правь статус, ####!111
**************
Group: Металариец
Posts: 4,602
Releases: 282
From: MoscoW
On Forums: 14 years 5 months
Thanks: 5189 time(s)
Russian Federation


(IMG:https://metalarea.org/images/audiocovers/2021_May/acov_tid350403_thumb.jpg)

*Artist: Syphilic Menstruation
*Album: Fornicating In Masticated Placenta [single]
*Year: 2019
*Genre: Brutal Death Metal
*Country: United States (IMG:https://metalarea.org/forum/style_images/flags/United%20States.png)
*Format: mp3@CBR320kbps
*Size: 7MB

Tracklist:
01. Fornicating In Masticated Placenta 02:46
******************************
Total playing time: 2:46



Technical info
(IMG:https://metalarea.org/images/spectrogram/2021_May/e7ce119595a4f8cde3e871c702331c3b.png)
Input File: 01. Fornicating In Masticated Placenta.mp3
Channels : 2
Sample Rate : 44100
Precision : 16-bit
Duration : 00:02:46.57 = 7345517 samples = 12492.4 CDDA sectors
File Size : 6.84M
Bit Rate : 329k
Sample Encoding: MPEG audio (layer I, II or III)
Comments :
Title=Fornicating in Masticated Placenta
Artist=Syphilic Menstruation
Year=2019



Register


Thanks:
Go to the top of the page
  Insert nick Quick quote
+Quote Post

Reply to this topicStart new topic
2 User(s) are reading this topic (2 Guests and 0 Anonymous Users)
0 Members:

 



- Lo-Fi Version Support form
Copyrights and abuse reports form
Time is now: 18th May 2021 - 03:01:11