Welcome Guest ( Log In | Register )

> Releases Upload / Добавление релизов

Добавить релиз тут / Click here to add release
Рекомендованные обменники / Recommended file shares

 
Reply to this topicStart new topic
> Hemorrhaging Queef - Slamming Autistic Retard Metal [single] (2020), Grindcore/Brutal Death Metal
post May 3 2021, 16:12:08
Post #1

Правь статус, ####!111
**************
Group: Металариец
Posts: 4,537
Releases: 272
From: MoscoW
On Forums: 14 years 5 months
Thanks: 5058 time(s)
Russian Federation


(IMG:https://metalarea.org/images/audiocovers/2021_May/acov_tid350404_thumb.jpg)

*Artist: Hemorrhaging Queef
*Album: Slamming Autistic Retard Metal [single]
*Year: 2020
*Genre: Grindcore/Brutal Death Metal
*Country: United States (IMG:https://metalarea.org/forum/style_images/flags/United%20States.png)
*Format: mp3@CBR320kbps
*Size: 14MB

Tracklist:
01. Slamming Autistic Retard Metal 06:00
******************************
Total playing time: 6:00



Technical info
(IMG:https://metalarea.org/images/spectrogram/2021_May/17200745393962cb88614baba03cbb69.png)
Input File: 01. Hemorrhaging Queef Ft. Mutilated Foreskin - Slamming Autistic Retard Metal.mp3
Channels : 2
Sample Rate : 44100
Precision : 16-bit
Duration : 00:06:00.74 = 15908810 samples = 27055.8 CDDA sectors
File Size : 14.6M
Bit Rate : 324k
Sample Encoding: MPEG audio (layer I, II or III)
Comments :
Title=Slamming Autistic Retard Metal
Artist=Hemorrhaging Queef Ft. Mutilated Foreskin
Year=2020



Register


Thanks:
Go to the top of the page
  Insert nick Quick quote
+Quote Post

Reply to this topicStart new topic
1 User(s) are reading this topic (1 Guests and 0 Anonymous Users)
0 Members:

 



- Lo-Fi Version Support form
Copyrights and abuse reports form
Time is now: 13th May 2021 - 09:29:08