Welcome Guest ( Log In | Register )

> Releases Upload / Добавление релизов

Добавить релиз тут / Click here to add release
Рекомендованные обменники / Recommended file shares

 
Reply to this topicStart new topic
> Hemorrhaging Queef - Cranial Circumcision [single] (2019), Grindcore/Brutal Death Metal
post May 3 2021, 16:18:22
Post #1

Правь статус, ####!111
**************
Group: Металариец
Posts: 4,602
Releases: 282
From: MoscoW
On Forums: 14 years 5 months
Thanks: 5189 time(s)
Russian Federation


(IMG:https://metalarea.org/images/audiocovers/2021_May/acov_tid350406_thumb.jpg)

*Artist: Hemorrhaging Queef
*Album: Cranial Circumcision [single]
*Year: 2019
*Genre: Grindcore/Brutal Death Metal
*Country: United States (IMG:https://metalarea.org/forum/style_images/flags/United%20States.png)
*Format: mp3@CBR320kbps
*Size: 9MB

Tracklist:
01. Cranial Circumcision 03:48
******************************
Total playing time: 3:48



Technical info
(IMG:https://metalarea.org/images/spectrogram/2021_May/181ac6edcdf49e637122518577c295b5.png)
Input File: 01. Cranial Circumcision.mp3
Channels : 2
Sample Rate : 44100
Precision : 16-bit
Duration : 00:03:49.03 = 10100135 samples = 17177.1 CDDA sectors
File Size : 9.25M
Bit Rate : 323k
Sample Encoding: MPEG audio (layer I, II or III)
Comments :
Title=Cranial Circumcision
Artist=HemorrhagingQueef
Year=2019



Register


Thanks:
Go to the top of the page
  Insert nick Quick quote
+Quote Post

Reply to this topicStart new topic
2 User(s) are reading this topic (2 Guests and 0 Anonymous Users)
0 Members:

 



- Lo-Fi Version Support form
Copyrights and abuse reports form
Time is now: 18th May 2021 - 01:36:49