Welcome Guest ( Log In | Register )

> Releases Upload / Добавление релизов

Добавить релиз тут / Click here to add release
Рекомендованные обменники / Recommended file shares

 
Reply to this topicStart new topic
> Hemorrhaging Queef - Civil War [ep] (2020), Grindcore/Brutal Death Metal
post May 3 2021, 16:27:25
Post #1

Правь статус, ####!111
**************
Group: Металариец
Posts: 4,537
Releases: 272
From: MoscoW
On Forums: 14 years 5 months
Thanks: 5058 time(s)
Russian Federation


(IMG:https://metalarea.org/images/audiocovers/2021_May/acov_tid350407_thumb.jpg)

*Artist: Hemorrhaging Queef
*Album: Civil War [ep]
*Year: 2020
*Genre: Grindcore/Brutal Death Metal
*Country: United States (IMG:https://metalarea.org/forum/style_images/flags/United%20States.png)
*Format: mp3@CBR320kbps
*Size: 20MB

Tracklist:
01. Whats the Truth 04:15
02. Hate Vs Hate 04:03
******************************
Total playing time: 8:18



Technical info
(IMG:https://metalarea.org/images/spectrogram/2021_May/fd20418f950ab62e9ce6af5558aa73bd.png)
Input File: 01. Whats The Truth.mp3
Channels : 2
Sample Rate : 44100
Precision : 16-bit
Duration : 00:04:15.94 = 11286734 samples = 19195.1 CDDA sectors
File Size : 10.4M
Bit Rate : 325k
Sample Encoding: MPEG audio (layer I, II or III)
Comments :
Title=Whats The Truth
Artist=HemorrhagingQueef
Album=Civil War
Tracknumber=1
Year=2020



Register


Go to the top of the page
  Insert nick Quick quote
+Quote Post

Reply to this topicStart new topic
1 User(s) are reading this topic (1 Guests and 0 Anonymous Users)
0 Members:

 



- Lo-Fi Version Support form
Copyrights and abuse reports form
Time is now: 13th May 2021 - 10:16:25