Welcome Guest ( Log In | Register )

> Dismembered Engorgement - Whore Evisceration (2018), Slam/Brutal Death Metal
post May 3 2021, 16:50:45
Post #1

Правь статус, ####!111
**************
Group: Металариец
Posts: 5,001
Releases: 441
From: MoscoW
On Forums: 14 years 8 months
Thanks: 7270 time(s)
Russian Federation


(IMG:https://metalarea.org/images/audiocovers/2021_May/acov_tid350408_thumb.jpg)

*Artist: Dismembered Engorgement
*Album: Whore Evisceration
*Year: 2018
*Genre: Slam/Brutal Death Metal
*Country: United States (IMG:https://metalarea.org/forum/style_images/flags/United%20States.png)
*Format: mp3@CBR320kbps
*Size: 52MB

Tracklist:
01. Eviscerating Her Womb... 03:00
02. Gore Slammed Whores 02:08
03. Engorging Mutilated Victims 02:00
04. Homoerotic Coproectomy 02:24
05. You Got Your Aids From A Gay Brony 02:06
06. Stillborn Annihilation 03:42
07. Feast On Sevared Human Limbs 02:04
08. Middle School Pedophile Rape 04:04
******************************
Total playing time: 21:28



Technical info
(IMG:https://metalarea.org/images/spectrogram/2021_May/7cfc2be197886c41836a739bc4670e91.png)
Input File: 01. Eviscerating Her Womb....mp3
Channels : 2
Sample Rate : 44100
Precision : 16-bit
Duration : 00:03:00.15 = 7944615 samples = 13511.2 CDDA sectors
File Size : 7.54M
Bit Rate : 335k
Sample Encoding: MPEG audio (layer I, II or III)
Comments :
Title=Eviscerating Her Womb...
Artist=Dismembered Engorgement
Album=Whore Evisceration
Tracknumber=1
Year=2018



Register


Go to the top of the page
  Insert nick Quick quote
+Quote Post
 
Start new topic
Replies (1 - 2)
post May 4 2021, 20:21:55
Post #2

De Mysteriis Dom Sathanas
**************
Group: Металариец
Posts: 4,231
Releases: 63
From: Doom
On Forums: 13 years 3 weeks
Thanks: 3635 time(s)
Russian Federation


Пацанчики реально лет в 15 начали, да и фото на это намекают (IMG:style_emoticons/default/1488.gif)
Go to the top of the page
  Insert nick Quick quote
+Quote Post
post May 5 2021, 14:26:11
Post #3

Два Литра
**
Group: Завсегдатай
Posts: 100
Releases: 0
From: Калуга
On Forums: 3 years 6 months
Thanks: 35 time(s)
Russian Federation


очень пласмассово.
Go to the top of the page
  Insert nick Quick quote
+Quote Post

Reply to this topicStart new topic
1 User(s) are reading this topic (1 Guests and 0 Anonymous Users)
0 Members:

 



- Lo-Fi Version Support form
Copyrights and abuse reports form
Time is now: 6th August 2021 - 04:33:43