Welcome Guest ( Log In | Register )

> Releases Upload / Добавление релизов

Добавить релиз тут / Click here to add release
Рекомендованные обменники / Recommended file shares

 
Reply to this topicStart new topic
> Coffin Breath - The Tenebrous Mist [demo] (2021), Death/Doom Metal
post May 3 2021, 16:53:01
Post #1

Правь статус, ####!111
**************
Group: Металариец
Posts: 26,313
Releases: 18927
From: Г.Харьков
On Forums: 9 years 1 month
Thanks: 377407 time(s)
Unknown


(IMG:https://metalarea.org/images/audiocovers/2021_May/acov_tid350409_thumb.jpg)

*Artist: Coffin Breath
*Album: The Tenebrous Mist [demo]
*Year: 2021
*Genre: Death/Doom Metal
*Country: Unknown (IMG:https://metalarea.org/forum/style_images/flags/Unknown.png)
*Format: mp3@CBR320kbps
*Size: 47MB

Tracklist:
1. Marching Into Lethargy 09:16
2. The Tenebrous Mist 11:25
******************************
Total playing time: 20:41



Technical info
(IMG:https://metalarea.org/images/spectrogram/2021_May/62eab012ccc841119defb8631e4eb52a.png)
Input File: Coffin Breath - The Tenebrous Mist - 01 Marching Into Lethargy.mp3
Channels : 2
Sample Rate : 44100
Precision : 16-bit
Duration : 00:09:16.75 = 24552763 samples = 41756.4 CDDA sectors
File Size : 22.4M
Bit Rate : 322k
Sample Encoding: MPEG audio (layer I, II or III)
Comments :
Title=Marching Into Lethargy
Artist=Coffin Breath
Album=The Tenebrous Mist
Tracknumber=1
Year=2021



Register


Go to the top of the page
  Insert nick Quick quote
+Quote Post

Reply to this topicStart new topic
1 User(s) are reading this topic (1 Guests and 0 Anonymous Users)
0 Members:

 



- Lo-Fi Version Support form
Copyrights and abuse reports form
Time is now: 17th June 2021 - 23:59:53