Welcome Guest ( Log In | Register )

> Releases Upload / Добавление релизов

Добавить релиз тут / Click here to add release
Рекомендованные обменники / Recommended file shares

 
Reply to this topicStart new topic
> Dismembered Engorgement - Slamming Whores Promo [demo] (2016), Slam/Brutal Death Metal
post May 3 2021, 16:59:30
Post #1

Правь статус, ####!111
**************
Group: Металариец
Posts: 4,537
Releases: 272
From: MoscoW
On Forums: 14 years 5 months
Thanks: 5058 time(s)
Russian Federation


(IMG:https://metalarea.org/images/audiocovers/2021_May/acov_tid350410_thumb.jpg)

*Artist: Dismembered Engorgement
*Album: Slamming Whores Promo [demo]
*Year: 2016
*Genre: Slam/Brutal Death Metal
*Country: United States (IMG:https://metalarea.org/forum/style_images/flags/United%20States.png)
*Format: mp3@CBR320kbps
*Size: 5MB

Tracklist:
01. You Fricking Fricks! 00:34
02. Whores Who Love Murder 01:21
******************************
Total playing time: 1:55

Extended info



Technical info
(IMG:https://metalarea.org/images/spectrogram/2021_May/aa3de2c122c538df3ae340ee87e9cda9.png)
Input File: 01. You Fricking Fricks!.mp3
Channels : 2
Sample Rate : 44100
Precision : 16-bit
Duration : 00:00:34.98 = 1542574 samples = 2623.43 CDDA sectors
File Size : 1.51M
Bit Rate : 344k
Sample Encoding: MPEG audio (layer I, II or III)
Comments :
Title=You Fricking Fricks!
Artist=Dismembered Engorgement
Album=Slamming Whores Promo
Tracknumber=1
Year=2016



Register


Go to the top of the page
  Insert nick Quick quote
+Quote Post

Reply to this topicStart new topic
1 User(s) are reading this topic (1 Guests and 0 Anonymous Users)
0 Members:

 



- Lo-Fi Version Support form
Copyrights and abuse reports form
Time is now: 13th May 2021 - 09:50:16