Welcome Guest ( Log In | Register )

> Releases Upload / Добавление релизов

Добавить релиз тут / Click here to add release
Рекомендованные обменники / Recommended file shares

 
Reply to this topicStart new topic
> Dismembered Engorgement - Dismembered Cum Dumpster [ep] (2016), Slam/Brutal Death Metal
post May 3 2021, 17:10:08
Post #1

Правь статус, ####!111
**************
Group: Металариец
Posts: 4,537
Releases: 272
From: MoscoW
On Forums: 14 years 5 months
Thanks: 5058 time(s)
Russian Federation


(IMG:https://metalarea.org/images/audiocovers/2021_May/acov_tid350411_thumb.jpg)

*Artist: Dismembered Engorgement
*Album: Dismembered Cum Dumpster [ep]
*Year: 2016
*Genre: Slam/Brutal Death Metal
*Country: United States (IMG:https://metalarea.org/forum/style_images/flags/United%20States.png)
*Format: mp3@CBR320kbps
*Size: 19MB

Tracklist:
01. Consuming The Decaying Stillborns 02:37
02. Slamming Gore Necrophilia 02:21
03. Little Girl Intestinal Rape 03:05
******************************
Total playing time: 8:03



Technical info
(IMG:https://metalarea.org/images/spectrogram/2021_May/14fe4b6bbddf07ed6f7b366b25c7a885.png)
Input File: 01. Consuming The Decaying Stillborns.mp3
Channels : 2
Sample Rate : 44100
Precision : 16-bit
Duration : 00:02:37.16 = 6930800 samples = 11787.1 CDDA sectors
File Size : 6.45M
Bit Rate : 329k
Sample Encoding: MPEG audio (layer I, II or III)
Comments :
Title=Consuming the Decaying Stillborns
Artist=Dismembered Engorgement
Album=Dismembered Cum Dumpster EP
Tracknumber=1
Year=2016



Register


Go to the top of the page
  Insert nick Quick quote
+Quote Post

Reply to this topicStart new topic
1 User(s) are reading this topic (1 Guests and 0 Anonymous Users)
0 Members:

 



- Lo-Fi Version Support form
Copyrights and abuse reports form
Time is now: 13th May 2021 - 10:09:09