Welcome Guest ( Log In | Register )

> Releases Upload / Добавление релизов

Добавить релиз тут / Click here to add release
Рекомендованные обменники / Recommended file shares

> Coffin Breath - The Tenebrous Mist [demo] (2021), Death/Doom Metal
post May 3 2021, 17:10:38
Post #1

Правь статус, ####!111
**************
Group: Металариец
Posts: 3,940
Releases: 3600
From: Одесса
On Forums: 12 years 11 months
Thanks: 38651 time(s)
Ukraine


(IMG:http://metalarea.org/images/audiocovers/2021_May/acov_tid350412_thumb.jpg)

*Artist: Coffin Breath
*Album: The Tenebrous Mist [demo]
*Year: 2021
*Genre: Death/Doom Metal
*Country: Unknown (IMG:http://metalarea.org/forum/style_images/flags/Unknown.png)
*Format: mp3@CBR320kbps
*Size: 50MB

Tracklist:
1. Marching Into Lethargy 09:16
2. The Tenebrous Mist 11:25
******************************
Total playing time: 20:41



Technical info
(IMG:http://metalarea.org/images/spectrogram/2021_May/cb144048607ebc540eef26bb855f8048.png)
Input File: 01. Marching Into Lethargy.mp3
Channels : 2
Sample Rate : 44100
Precision : 16-bit
Duration : 00:09:16.76 = 24552896 samples = 41756.6 CDDA sectors
File Size : 22.4M
Bit Rate : 321k
Sample Encoding: MPEG audio (layer I, II or III)
Comments :
Title=Marching Into Lethargy
Artist=Coffin Breath
Album=The Tenebrous Mist (EP)
Tracknumber=1
Year=2021
Genre=Death/Doom Metal



Register


Go to the top of the page
  Insert nick Quick quote
+Quote Post
 
Start new topic
Replies (1 - 1)
post May 4 2021, 17:57:13
Post #2

Два Литра
**
Group: Завсегдатай
Posts: 110
Releases: 0
On Forums: 2 years 4 months
Thanks: 29 time(s)
Russian Federation


Тяжеловесная, грузовая музыка. Словно путник пробирается сквозь топкие болота под свинцовыми тучами в сумерках.


Thanks:
(1) Occultas,
Go to the top of the page
  Insert nick Quick quote
+Quote Post

Reply to this topicStart new topic
1 User(s) are reading this topic (1 Guests and 0 Anonymous Users)
0 Members:

 



- Lo-Fi Version Support form
Copyrights and abuse reports form
Time is now: 13th May 2021 - 10:19:42