Welcome Guest ( Log In | Register )

> Releases Upload / Добавление релизов

Добавить релиз тут / Click here to add release
Рекомендованные обменники / Recommended file shares

 
Reply to this topicStart new topic
> Infitar - Inhuman (2021), Death Metal
post May 3 2021, 17:34:42
Post #1

Правь статус, ####!111
**************
Group: Металариец
Posts: 26,030
Releases: 18686
From: Г.Харьков
On Forums: 9 years 3 days
Thanks: 370235 time(s)
Unknown


(IMG:https://metalarea.org/images/audiocovers/2021_May/acov_tid350413_thumb.jpg)

*Artist: Infitar
*Album: Inhuman
*Year: 2021
*Genre: Death Metal
*Country: Indonesia (IMG:https://metalarea.org/forum/style_images/flags/Indonesia.png)
*Format: mp3@CBR320kbps
*Size: 93MB

Tracklist:
1. Meretas Batas 05:02
2. Reguirgitate Hate 04:35
3. Inhuman 05:14
4. Kejam Temaram 04:05
5. Suaka Jiwa 03:55
6. Propagate Defamation 04:59
7. Obliteration 04:01
8. Evil Dead (Death cover) 03:03
9. Propagate Defamation US (tape version) 05:10
******************************
Total playing time: 40:04




Extended info
Rip from bandcamp
Leonard Guitars (2010-present)
See also: Choria, Kill Athena
Latif Guitars (2010-2014), Vocals (2010-2011, 2014-present)
See also: ex-Baby Frog
Gembes Bass (2018-present)
See also: Fetal Bleeding, ex-Anal Torture, ex-Propaganda
Bob Gulma Drums (2018-present)
See also: This Spring of Death, ex-Injury Deepen


Technical info
(IMG:https://metalarea.org/images/spectrogram/2021_May/a50353ed1dd121fb7ae16cef9b4fcc3d.png)
Input File: 06. Propagate Defamation.mp3
Channels : 2
Sample Rate : 44100
Precision : 16-bit
Duration : 00:04:59.93 = 13226957 samples = 22494.8 CDDA sectors
File Size : 12.3M
Bit Rate : 327k
Sample Encoding: MPEG audio (layer I, II or III)
Comments :
Title=Propagate Defamation
Artist=Infitar
Album=Inhuman
Tracknumber=6
Year=2021
Genre=Death Metal



Register


Go to the top of the page
  Insert nick Quick quote
+Quote Post

Reply to this topicStart new topic
1 User(s) are reading this topic (1 Guests and 0 Anonymous Users)
0 Members:

 



- Lo-Fi Version Support form
Copyrights and abuse reports form
Time is now: 13th May 2021 - 10:30:41