Welcome Guest ( Log In | Register )

> Releases Upload / Добавление релизов

Добавить релиз тут / Click here to add release
Рекомендованные обменники / Recommended file shares

 
Reply to this topicStart new topic
> La Ballade Des Rats - Rattus Magnus (2021), Raw Black Metal
post May 3 2021, 17:49:26
Post #1

Malum dominus omnium
****
Group: Металариец
Posts: 331
Releases: 242
On Forums: 1 year 2 months
Thanks: 4771 time(s)
Vatican City


(IMG:https://metalarea.org/images/audiocovers/2021_May/acov_tid350414_thumb.jpg)

*Artist: La Ballade Des Rats
*Album: Rattus Magnus
*Year: 2021
*Genre: Raw Black Metal
*Country: France (IMG:https://metalarea.org/forum/style_images/flags/France.png)
*Format: mp3@CBR320kbps
*Size: 130MB

Tracklist:
1. Impedimentum 04:37
2. Bourrasque Pestiférée 04:18
3. Fax Ardebat 06:45
4. Comme Nous Guerroyons Aussi 02:44
5. Lou Castelet 03:39
6. Conciliabule 06:19
7. Chant du Thoronet 02:01
8. Le Sacre du Rat 10:15
9. Rats & Poussière 02:42
10. Purpura 06:20
11. Affliction Divine 03:13
12. À Dieu Aux Rats 01:32
******************************
Total playing time: 54:25


Metal Archives

(IMG:https://metalarea.org/images/youtube.png)

Technical info
(IMG:https://metalarea.org/images/spectrogram/2021_May/5b6e5a7e87b1cbec8c6ce1ab7e69434f.png)
Input File: La Ballade des Rats - Le Sacre du Rat.mp3
Channels : 2
Sample Rate : 44100
Precision : 16-bit
Duration : 00:10:15.27 = 27133319 samples = 46145.1 CDDA sectors
File Size : 24.6M
Bit Rate : 320k
Sample Encoding: MPEG audio (layer I, II or III)
Comments :
Title=Le Sacre du Rat
Artist=La Ballade des Rats
Album=Rattus Magnus
Tracknumber=8
Year=2021
Genre=Black Metal



Register


Go to the top of the page
  Insert nick Quick quote
+Quote Post

Reply to this topicStart new topic
1 User(s) are reading this topic (1 Guests and 0 Anonymous Users)
0 Members:

 



- Lo-Fi Version Support form
Copyrights and abuse reports form
Time is now: 13th May 2021 - 10:42:06