Welcome Guest ( Log In | Register )

> Releases Upload / Добавление релизов

Добавить релиз тут / Click here to add release
Рекомендованные обменники / Recommended file shares

 
Reply to this topicStart new topic
> Miserable Creature - Miserable Creature 2 [demo] (2021), Death Metal
post May 3 2021, 17:51:02
Post #1

Правь статус, ####!111
**************
Group: Металариец
Posts: 4,083
Releases: 3739
From: Одесса
On Forums: 13 years 2 weeks
Thanks: 40685 time(s)
Ukraine


(IMG:http://metalarea.org/images/audiocovers/2021_May/acov_tid350415_thumb.jpg)

*Artist: Miserable Creature
*Album: Miserable Creature 2 [demo]
*Year: 2021
*Genre: Death Metal
*Country: Australia (IMG:http://metalarea.org/forum/style_images/flags/Australia.png)
*Format: mp3@CBR320kbps
*Size: 33MB

Tracklist:
1. Intro 00:27
2. Evil Grimace 03:49
3. Paralysis of Indecision 05:00
4. Inconsolable 04:36
******************************
Total playing time: 13:52



Extended info
Line - up:

Alex Waldmeyer - Drums (Murder Mountain)
Mitch Coon - Guitars, Vocals (ex-Trophyknife)


Technical info
(IMG:http://metalarea.org/images/spectrogram/2021_May/39c7fb224af90e98aac4cc3199f7b354.png)
Input File: 03. Paralysis of Indecision.mp3
Channels : 2
Sample Rate : 44100
Precision : 16-bit
Duration : 00:05:00.74 = 13262678 samples = 22555.6 CDDA sectors
File Size : 12.0M
Bit Rate : 320k
Sample Encoding: MPEG audio (layer I, II or III)
Comments :
Title=Paralysis of Indecision
Artist=Miserable Creature
Album=Miserable Creature - 2 (Demo)
Tracknumber=3
Year=2021
Genre=22



Register


Go to the top of the page
  Insert nick Quick quote
+Quote Post

Reply to this topicStart new topic
1 User(s) are reading this topic (1 Guests and 0 Anonymous Users)
0 Members:

 



- Lo-Fi Version Support form
Copyrights and abuse reports form
Time is now: 22nd June 2021 - 02:52:31