Welcome Guest ( Log In | Register )

> Releases Upload / Добавление релизов

Добавить релиз тут / Click here to add release
Рекомендованные обменники / Recommended file shares

 
Reply to this topicStart new topic
> Vietnam Rose - Darkness Side (2021), Technical/Melodic Death Metal
post May 3 2021, 18:17:38
Post #1

Правь статус, ####!111
**************
Group: Металариец
Posts: 26,064
Releases: 18713
From: Г.Харьков
On Forums: 9 years 1 week
Thanks: 371100 time(s)
Unknown


(IMG:https://metalarea.org/images/audiocovers/2021_May/acov_tid350416_thumb.jpg)

*Artist: Vietnam Rose
*Album: Darkness Side
*Year: 2021
*Genre: Technical/Melodic Death Metal
*Country: Indonesia (IMG:https://metalarea.org/forum/style_images/flags/Indonesia.png)
*Format: mp3@CBR320kbps
*Size: 141MB

Tracklist:
1. Prelude Gate 01:29
2. Rhymes for the Insults 05:26
3. The Heretic 04:14
4. The Hatred 04:56
5. Tiranny 04:54
6. Griffint 05:00
7. Quietus 05:58
8. Darkness Side 05:48
9. The Splinters of Sins and Hell 07:17
10. Inpersonate of the Wicked 06:38
11. Next Day Survivor 06:39
12. Closuresurrection 02:45
******************************
Total playing time: 1:01:04




Extended info


Technical info
(IMG:https://metalarea.org/images/spectrogram/2021_May/e18db92f18b8af743cc3eef1634b0a3d.png)
Input File: 07 - Quietus.mp3
Channels : 2
Sample Rate : 44100
Precision : 16-bit
Duration : 00:05:58.08 = 15791460 samples = 26856.2 CDDA sectors
File Size : 14.5M
Bit Rate : 324k
Sample Encoding: MPEG audio (layer I, II or III)
Comments :
Title=Quietus
Artist=Vietnam Rose
Album=Darkness Side
Tracknumber=7
Year=2021
Genre=Technical, Melodic Death Metal
Discnumber=1/1



Register


Go to the top of the page
  Insert nick Quick quote
+Quote Post

Reply to this topicStart new topic
2 User(s) are reading this topic (2 Guests and 0 Anonymous Users)
0 Members:

 



- Lo-Fi Version Support form
Copyrights and abuse reports form
Time is now: 18th May 2021 - 02:47:19