Welcome Guest ( Log In | Register )

> Releases Upload / Добавление релизов

Добавить релиз тут / Click here to add release
Рекомендованные обменники / Recommended file shares

 
Reply to this topicStart new topic
> Devilvvorshipper - The Divine Right Of Kings (2021), Black Metal
post May 3 2021, 18:35:14
Post #1

Правь статус, ####!616
**************
Group: Металариец
Posts: 6,193
Releases: 4695
From: 55°35’N 38°08’E
On Forums: 12 years 10 months
Thanks: 86832 time(s)
Unknown


(IMG:https://metalarea.org/images/audiocovers/2021_May/acov_tid350417_thumb.jpg)

*Artist: Devilvvorshipper
*Album: The Divine Right Of Kings
*Year: 2021
*Genre: Black Metal
*Country: United States (IMG:https://metalarea.org/forum/style_images/flags/United%20States.png)
*Format: mp3@CBR320kbps
*Size: 125MB

Tracklist:
1.The Divine Right of Kings 08:59
2.The Darkest Path Shines Brightly 05:59
3.Sword of Hatred, Crown of Sorrow 06:25
4.The Spellbound Heart 05:46
5.We Are In This Together 05:44
6.The Curse of Salvation 05:17
7.I Will Guide Thy Hand 02:50
8.Unfit To Wear The Crown 13:45
******************************
Total playing time: 54:45



Technical info
(IMG:https://metalarea.org/images/spectrogram/2021_May/72d0e5b35b6c4a764783512c11abdcef.png)
Input File: 01 The Divine Right of Kings.mp3
Channels : 2
Sample Rate : 44100
Precision : 16-bit
Duration : 00:08:59.85 = 23807517 samples = 40489 CDDA sectors
File Size : 21.7M
Bit Rate : 321k
Sample Encoding: MPEG audio (layer I, II or III)
Comments :
Title=The Divine Right of Kings
Artist=Devilvvorshipper
Album=The Divine Right of Kings
Tracknumber=1
Year=2021
Genre=Black Metal



Register


Go to the top of the page
  Insert nick Quick quote
+Quote Post

Reply to this topicStart new topic
1 User(s) are reading this topic (1 Guests and 0 Anonymous Users)
0 Members:

 



- Lo-Fi Version Support form
Copyrights and abuse reports form
Time is now: 13th May 2021 - 11:19:04