Welcome Guest ( Log In | Register )

> Releases Upload / Добавление релизов

Добавить релиз тут / Click here to add release
Рекомендованные обменники / Recommended file shares

 
Reply to this topicStart new topic
> Grim Tormentor - Inferno [ep] (2020), Black/Doom Metal
post May 3 2021, 19:04:21
Post #1

Правь статус, ####!111
**************
Group: Металариец
Posts: 3,965
Releases: 3623
From: Одесса
On Forums: 12 years 11 months
Thanks: 38880 time(s)
Ukraine


(IMG:http://metalarea.org/images/audiocovers/2021_May/acov_tid350418_thumb.png)

*Artist: Grim Tormentor
*Album: Inferno [ep]
*Year: 2020
*Genre: Black/Doom Metal
*Country: United Kingdom (IMG:http://metalarea.org/forum/style_images/flags/United%20Kingdom.png)
*Format: mp3@CBR320kbps
*Size: 179MB

Tracklist:
1. The Antichrist of Desolation 01:12:53
******************************
Total playing time: 1:12



Technical info
(IMG:http://metalarea.org/images/spectrogram/2021_May/d281cb8af69db26c4f695fca45920824.png)
Input File: 01. The Antichrist of Desolation.mp3
Channels : 2
Sample Rate : 44100
Precision : 16-bit
Duration : 01:12:53.43 = 192868307 samples = 328007 CDDA sectors
File Size : 175M
Bit Rate : 320k
Sample Encoding: MPEG audio (layer I, II or III)
Comments :
Title=The Antichrist of Desolation
Artist=Grim Tormentor
Album=Inferno (EP)
Tracknumber=1
Year=2020
Genre=Black/Doom Metal



Register


Go to the top of the page
  Insert nick Quick quote
+Quote Post

Reply to this topicStart new topic
2 User(s) are reading this topic (2 Guests and 0 Anonymous Users)
0 Members:

 



- Lo-Fi Version Support form
Copyrights and abuse reports form
Time is now: 18th May 2021 - 03:09:21