Welcome Guest ( Log In | Register )

> Releases Upload / Добавление релизов

Добавить релиз тут / Click here to add release
Рекомендованные обменники / Recommended file shares

> Heyf - Spectra [ep] (2021), Atmospheric/Raw Black Metal/Dark Ambient
post May 3 2021, 19:12:35
Post #1

Правь статус, ####!616
**************
Group: Металариец
Posts: 6,193
Releases: 4695
From: 55°35’N 38°08’E
On Forums: 12 years 10 months
Thanks: 86984 time(s)
Unknown


(IMG:https://metalarea.org/images/audiocovers/2021_May/acov_tid350419_thumb.jpg)

*Artist: Heyf
*Album: Spectra [ep]
*Year: 2021
*Genre: Atmospheric/Raw Black Metal/Dark Ambient
*Country: International (IMG:https://metalarea.org/forum/style_images/flags/International.png)
*Format: mp3@CBR320kbps
*Size: 59MB

Tracklist:
1. War Specter I 03:00
2. War Specter II 04:04
3. Li eniyên şer 06:40
4. Azadî 03:31
5. To Those Who Are Gone 05:17
6. What Is Left (Melancholie) 03:05
******************************
Total playing time: 25:37



Technical info
(IMG:https://metalarea.org/images/spectrogram/2021_May/d4bfc4c773240271a1a52621b6157aed.png)
Input File: 02 War Specter II.mp3
Channels : 2
Sample Rate : 44100
Precision : 16-bit
Duration : 00:04:04.52 = 10783420 samples = 18339.1 CDDA sectors
File Size : 9.88M
Bit Rate : 323k
Sample Encoding: MPEG audio (layer I, II or III)
Comments :
Title=War Specter II
Artist=Heyf
Album=Spectra
Tracknumber=2
Year=2021
Genre=Black Metal



Register


Go to the top of the page
  Insert nick Quick quote
+Quote Post
 
Start new topic
Replies (1 - 1)
post May 4 2021, 18:41:36
Post #2

KPN 666
**************
Group: Металариец
Posts: 2,173
Releases: 833
From: Тегеран
On Forums: 11 years 10 months
Thanks: 14138 time(s)
Iran


"Heyf" in Persian means "Pity".
song 3, "Azadi" means "Freedom".
Go to the top of the page
  Insert nick Quick quote
+Quote Post

Reply to this topicStart new topic
2 User(s) are reading this topic (2 Guests and 0 Anonymous Users)
0 Members:

 



- Lo-Fi Version Support form
Copyrights and abuse reports form
Time is now: 18th May 2021 - 03:21:47