Welcome Guest ( Log In | Register )

> Releases Upload / Добавление релизов

Добавить релиз тут / Click here to add release
Рекомендованные обменники / Recommended file shares

> Naurrakar - Uranfaust (2021), Black Metal (D6)
post May 3 2021, 21:21:21
Post #1

Литр
*
Group: Подсевший
Posts: 85
Releases: 80
On Forums: 2 weeks 1 day
Thanks: 1522 time(s)
United States


(IMG:https://metalarea.org/images/audiocovers/2021_May/acov_tid350420_thumb.jpg)

*Artist: Naurrakar
*Album: Uranfaust
*Year: 2021
*Genre: Black Metal
*Country: Czech Republic (IMG:https://metalarea.org/forum/style_images/flags/Czech%20Republic.png)
*Format: mp3@CBR320kbps
*Size: 87MB

Tracklist:
01. Neradost Lidstva
02. Mota-Natas
03. Modlitba Má
04. Neblahodárný Déšť
05. Mrtvý Vítěz
06. Člověk, Chyba
07. Budoucí Prázdnota
08. Uranfaust
******************************
Total playing time: 33:12


(IMG:https://metalarea.org/images/youtube.png)

Technical info
(IMG:https://metalarea.org/images/spectrogram/2021_May/a79bf466a7e1473d1c4db0f5fce3f2a7.png)
Input File: 02. Mota-Natas.mp3
Channels : 2
Sample Rate : 44100
Precision : 16-bit
Duration : 00:04:27.49 = 11796089 samples = 20061.4 CDDA sectors
File Size : 10.8M
Bit Rate : 323k
Sample Encoding: MPEG audio (layer I, II or III)
Comments :
Title=Mota-Natas
Artist=Naurrakar
Album=Uranfaust
Tracknumber=02/08
Year=2021-04-30
Genre=Black Metal
Discnumber=1



Register


Go to the top of the page
  Insert nick Quick quote
+Quote Post
 
Start new topic
Replies (1 - 1)
post May 5 2021, 07:32:49
Post #2

Common dweller of hell
**************
Group: Металариец
Posts: 3,746
Releases: 12
From: Dnipro
On Forums: 12 years 10 months
Thanks: 1470 time(s)
Ukraine


Go to the top of the page
  Insert nick Quick quote
+Quote Post

Reply to this topicStart new topic
1 User(s) are reading this topic (1 Guests and 0 Anonymous Users)
0 Members:

 



- Lo-Fi Version Support form
Copyrights and abuse reports form
Time is now: 13th May 2021 - 10:57:39