Welcome Guest ( Log In | Register )

> Releases Upload / Добавление релизов

Добавить релиз тут / Click here to add release
Рекомендованные обменники / Recommended file shares

 
Reply to this topicStart new topic
> Lidérc - Promo [demo] (2021), Black Metal
post May 4 2021, 00:05:48
Post #1

Malum dominus omnium
****
Group: Металариец
Posts: 331
Releases: 242
On Forums: 1 year 2 months
Thanks: 4769 time(s)
Vatican City


(IMG:https://metalarea.org/images/audiocovers/2021_May/acov_tid350424_thumb.jpg)

*Artist: Lidérc
*Album: Promo [demo]
*Year: 2021
*Genre: Black Metal
*Country: Hungary (IMG:https://metalarea.org/forum/style_images/flags/Hungary.png)
*Format: mp3@CBR320kbps
*Size: 25MB

Tracklist:
1. I 05:34
2. II 05:18
******************************
Total playing time: 10:52


Metal Archives
(IMG:https://metalarea.org/images/youtube.png)

Technical info
(IMG:https://metalarea.org/images/spectrogram/2021_May/46b65fd85ad019c4a4d82f49942b56a4.png)
Input File: Lidérc - I.mp3
Channels : 2
Sample Rate : 48000
Precision : 16-bit
Duration : 00:05:34.81 = 16070736 samples ~ 25110.5 CDDA sectors
File Size : 13.4M
Bit Rate : 320k
Sample Encoding: MPEG audio (layer I, II or III)
Comments :
Title=I
Artist=Lidérc
Album=Promo
Tracknumber=1
Year=2021
Genre=Black Metal



Register


Go to the top of the page
  Insert nick Quick quote
+Quote Post

Reply to this topicStart new topic
1 User(s) are reading this topic (1 Guests and 0 Anonymous Users)
0 Members:

 



- Lo-Fi Version Support form
Copyrights and abuse reports form
Time is now: 13th May 2021 - 09:45:11