Welcome Guest ( Log In | Register )

> Releases Upload / Добавление релизов

Добавить релиз тут / Click here to add release
Рекомендованные обменники / Recommended file shares

 
Reply to this topicStart new topic
> Thundergod - The Realm [ep] (2021), Epic Power Metal
post May 4 2021, 01:48:24
Post #1

Правь статус, ####!111
**************
Group: Металариец
Posts: 26,030
Releases: 18686
From: Г.Харьков
On Forums: 9 years 3 days
Thanks: 370233 time(s)
Unknown


(IMG:https://metalarea.org/images/audiocovers/2021_May/acov_tid350425_thumb.jpg)

*Artist: Thundergod
*Album: The Realm [ep]
*Year: 2021
*Genre: Epic Power Metal
*Country: Finland (IMG:https://metalarea.org/forum/style_images/flags/Finland.png)
*Format: mp3@CBR320kbps
*Size: 39MB

Tracklist:
1. The Realm 00:47
2. Thundergod 04:48
3. Powerglove 04:50
4. Heart of a Warrior 06:22
******************************
Total playing time: 16:47

(IMG:https://metalarea.org/images/youtube.png)
(IMG:https://metalarea.org/images/youtube.png)
(IMG:https://metalarea.org/images/youtube.png)


Technical info
(IMG:https://metalarea.org/images/spectrogram/2021_May/7d0cfd3d880baf218197a59532cbef74.png)
Input File: 04 - Heart of a Warrior.mp3
Channels : 2
Sample Rate : 44100
Precision : 16-bit
Duration : 00:06:21.00 = 16802100 samples = 28575 CDDA sectors
File Size : 15.4M
Bit Rate : 323k
Sample Encoding: MPEG audio (layer I, II or III)
Comments :
Title=Heart of a Warrior
Artist=Thundergod
Album=The Realm
Tracknumber=4
Year=2021-05-03
Discnumber=1



Register


Go to the top of the page
  Insert nick Quick quote
+Quote Post

Reply to this topicStart new topic
1 User(s) are reading this topic (1 Guests and 0 Anonymous Users)
0 Members:

 



- Lo-Fi Version Support form
Copyrights and abuse reports form
Time is now: 13th May 2021 - 10:01:40