Welcome Guest ( Log In | Register )

> Releases Upload / Добавление релизов

Добавить релиз тут / Click here to add release
Рекомендованные обменники / Recommended file shares

 
Reply to this topicStart new topic
> Daenam - Portal Cósmico (2020), Black Metal
post May 4 2021, 09:00:06
Post #1

Два Литра
**
Group: Завсегдатай
Posts: 113
Releases: 104
On Forums: 2 weeks 6 days
Thanks: 2044 time(s)
United States


(IMG:https://metalarea.org/images/audiocovers/2021_May/acov_tid350426_thumb.jpg)

*Artist: Daenam
*Album: Portal Cósmico
*Year: 2020
*Genre: Black Metal
*Country: Colombia (IMG:https://metalarea.org/forum/style_images/flags/Colombia.png)
*Format: mp3@CBR320kbps
*Size: 116MB

Tracklist:
01. Muladhara Draconis 02:29
02. Portal Cósmico 05:33
03. Disorgasmia 03:53
04. Segundo Círculo 05:30
05. Lascivia Y Trasgresión 03:22
06. Luna De Sangre 05:59
07. Metempsicosis 03:34
08. Venus 06:54
09. Dualidad 05:42
10. Kundalini 04:21
******************************
Total playing time: 47:17



Technical info
(IMG:https://metalarea.org/images/spectrogram/2021_May/79de27310e9f698b34a033259ffa6447.png)
Input File: 02. Portal Cósmico.mp3
Channels : 2
Sample Rate : 44100
Precision : 16-bit
Duration : 00:05:33.42 = 14703910 samples = 25006.6 CDDA sectors
File Size : 13.4M
Bit Rate : 321k
Sample Encoding: MPEG audio (layer I, II or III)
Comments :
Title=Portal Cósmico
Artist=Daenam
Album=Portal Cósmico
Tracknumber=02/10
Year=2020-09-08
Genre=Metal
Discnumber=1



Register


Go to the top of the page
  Insert nick Quick quote
+Quote Post

Reply to this topicStart new topic
2 User(s) are reading this topic (2 Guests and 0 Anonymous Users)
0 Members:

 



- Lo-Fi Version Support form
Copyrights and abuse reports form
Time is now: 18th May 2021 - 01:52:10