Welcome Guest ( Log In | Register )

> Releases Upload / Добавление релизов

Добавить релиз тут / Click here to add release
Рекомендованные обменники / Recommended file shares

 
Reply to this topicStart new topic
> Disembodiment - Mutated Chaos [ep] (2021), Death Metal
post May 4 2021, 09:02:43
Post #1

Правь статус, ####!616
**************
Group: Металариец
Posts: 6,193
Releases: 4695
From: 55°35’N 38°08’E
On Forums: 12 years 10 months
Thanks: 86984 time(s)
Unknown


(IMG:https://metalarea.org/images/audiocovers/2021_May/acov_tid350427_thumb.jpg)

*Artist: Disembodiment
*Album: Mutated Chaos [ep]
*Year: 2021
*Genre: Death Metal
*Country: Canada (IMG:https://metalarea.org/forum/style_images/flags/Canada.png)
*Format: mp3@CBR320kbps
*Size: 35MB

Tracklist:
1.Intro 00:38
2.Ceaseless Discharge 02:28
3.Trascendental Upheaval of Unholy Graves 02:49
4.Mephitic Gunk of Putrified Limbs 01:43
5.Sickening Abominations Terrorizing at Night 02:18
6.Below the Mind of Morbidity 04:26
******************************
Total playing time: 14:22






Technical info
(IMG:https://metalarea.org/images/spectrogram/2021_May/197f0f1b6fc7996e9b3711db38adb2da.png)
Input File: 02 Ceaseless Discharge.mp3
Channels : 2
Sample Rate : 44100
Precision : 16-bit
Duration : 00:02:28.28 = 6538972 samples = 11120.7 CDDA sectors
File Size : 6.09M
Bit Rate : 329k
Sample Encoding: MPEG audio (layer I, II or III)
Comments :
Title=Ceaseless Discharge
Artist=Disembodiment
Album=Mutated Chaos
Tracknumber=2
Year=2021
Genre=Death Metal



Register


Go to the top of the page
  Insert nick Quick quote
+Quote Post

Reply to this topicStart new topic
2 User(s) are reading this topic (2 Guests and 0 Anonymous Users)
0 Members:

 



- Lo-Fi Version Support form
Copyrights and abuse reports form
Time is now: 18th May 2021 - 02:12:10