Welcome Guest ( Log In | Register )

> Releases Upload / Добавление релизов

Добавить релиз тут / Click here to add release
Рекомендованные обменники / Recommended file shares

 
Reply to this topicStart new topic
> Sol De Sangre - Despair Distiller [ep] (2021), Death Metal
post May 4 2021, 09:24:18
Post #1

Правь статус, ####!616
**************
Group: Металариец
Posts: 6,193
Releases: 4695
From: 55°35’N 38°08’E
On Forums: 12 years 10 months
Thanks: 86866 time(s)
Unknown


(IMG:https://metalarea.org/images/audiocovers/2021_May/acov_tid350428_thumb.jpg)

*Artist: Sol De Sangre
*Album: Despair Distiller [ep]
*Year: 2021
*Genre: Death Metal
*Country: Colombia (IMG:https://metalarea.org/forum/style_images/flags/Colombia.png)
*Format: mp3@CBR320kbps
*Size: 33MB

Tracklist:
1.Tumbas Del Olvido 00:44
2.Self Hatred Maze 04:26
3.Noise And Bile 04:10
4.Dismal Blasphemies 04:38
******************************
Total playing time: 13:58




Technical info
(IMG:https://metalarea.org/images/spectrogram/2021_May/6231a779dd296a6f29899d9a32b03507.png)
Input File: 02 Self Hatred Maze.mp3
Channels : 2
Sample Rate : 44100
Precision : 16-bit
Duration : 00:04:26.65 = 11759221 samples = 19998.7 CDDA sectors
File Size : 10.9M
Bit Rate : 327k
Sample Encoding: MPEG audio (layer I, II or III)
Comments :
Title=Self Hatred Maze
Artist=Sol de Sangre
Album=Despair Distiller
Tracknumber=2
Year=2021
Genre=Death Metal



Register


Go to the top of the page
  Insert nick Quick quote
+Quote Post

Reply to this topicStart new topic
2 User(s) are reading this topic (2 Guests and 0 Anonymous Users)
0 Members:

 



- Lo-Fi Version Support form
Copyrights and abuse reports form
Time is now: 14th May 2021 - 11:42:28