Welcome Guest ( Log In | Register )

> Releases Upload / Добавление релизов

Добавить релиз тут / Click here to add release
Рекомендованные обменники / Recommended file shares

 
Reply to this topicStart new topic
> Outlaw - Death Miasma [ep] (2021), Black Metal (D4)
post May 4 2021, 11:26:24
Post #1

Два Литра
**
Group: Завсегдатай
Posts: 113
Releases: 104
On Forums: 2 weeks 6 days
Thanks: 2044 time(s)
United States


(IMG:https://metalarea.org/images/audiocovers/2021_May/acov_tid350430_thumb.jpg)

*Artist: Outlaw
*Album: Death Miasma [ep]
*Year: 2021
*Genre: Black Metal
*Country: Brazil (IMG:https://metalarea.org/forum/style_images/flags/Brazil.png)
*Format: mp3@CBR320kbps
*Size: 64MB

Tracklist:
01. The Unending Night
02. The Serpent's Chant
03. Death Miasma
04. The Anti Kosmik Magick (The Devil's Blood Cover)
******************************
Total playing time: 23:58




Technical info
(IMG:https://metalarea.org/images/spectrogram/2021_May/23c53c2dd1146dae096a9cf1bd006d5d.png)
Input File: 02. The Serpent\'s Chant.mp3
Channels : 2
Sample Rate : 44100
Precision : 16-bit
Duration : 00:06:02.29 = 15976945 samples = 27171.7 CDDA sectors
File Size : 14.5M
Bit Rate : 321k
Sample Encoding: MPEG audio (layer I, II or III)
Comments :
Title=The Serpent's Chant
Artist=Outlaw
Album=Death Miasma (EP)
Tracknumber=02/04
Year=2021-05-05
Genre=Metal
Discnumber=1



Register


Go to the top of the page
  Insert nick Quick quote
+Quote Post

Reply to this topicStart new topic
2 User(s) are reading this topic (2 Guests and 0 Anonymous Users)
0 Members:

 



- Lo-Fi Version Support form
Copyrights and abuse reports form
Time is now: 18th May 2021 - 01:45:34