Welcome Guest ( Log In | Register )

> Releases Upload / Добавление релизов

Добавить релиз тут / Click here to add release
Рекомендованные обменники / Recommended file shares

 
Reply to this topicStart new topic
> Prekurxor - Seasons None Live To Tell [ep] (2020), Black Metal
post May 4 2021, 14:03:10
Post #1

Serial Uploader
Group Icon
Group: V.I.P
Posts: 37,582
Releases: 35754
From: Lithuania
On Forums: 12 years 11 months
Thanks: 432295 time(s)
Lithuania


(IMG:https://metalarea.org/images/audiocovers/2021_May/acov_tid350431_thumb.png)

*Artist: Prekurxor
*Album: Seasons None Live To Tell [ep]
*Year: 2020
*Genre: Black Metal
*Country: Singapore (IMG:https://metalarea.org/forum/style_images/flags/Singapore.png)
*Format: mp3@CBR320kbps
*Size: 23MB

Tracklist:
01. Tribune of All Fates 03:46
02. Seasons None Live to Tell 05:54
******************************
Total playing time: 9:40



Technical info
(IMG:https://metalarea.org/images/spectrogram/2021_May/9f137f0b09d779647d300ff2841143b9.png)
Input File: Prekurxor - Seasons None Live To Tell - 02 Seasons None Live To Tell.mp3
Channels : 2
Sample Rate : 44100
Precision : 16-bit
Duration : 00:05:55.05 = 15657661 samples = 26628.7 CDDA sectors
File Size : 14.3M
Bit Rate : 322k
Sample Encoding: MPEG audio (layer I, II or III)
Comments :
Title=Seasons None Live To Tell
Artist=Prekurxor
Album=Seasons None Live To Tell
Tracknumber=2
Year=2020



Register


Go to the top of the page
  Insert nick Quick quote
+Quote Post

Reply to this topicStart new topic
1 User(s) are reading this topic (1 Guests and 0 Anonymous Users)
0 Members:

 



- Lo-Fi Version Support form
Copyrights and abuse reports form
Time is now: 18th May 2021 - 02:38:32