Welcome Guest ( Log In | Register )

> Releases Upload / Добавление релизов

Добавить релиз тут / Click here to add release
Рекомендованные обменники / Recommended file shares

 
Reply to this topicStart new topic
> Monasteries - Silence [ep] (2020), Progressive/Technical Deathcore
post May 4 2021, 14:11:41
Post #1

Serial Uploader
Group Icon
Group: V.I.P
Posts: 37,582
Releases: 35754
From: Lithuania
On Forums: 12 years 11 months
Thanks: 432295 time(s)
Lithuania


(IMG:https://metalarea.org/images/audiocovers/2021_May/acov_tid350432_thumb.jpg)

*Artist: Monasteries
*Album: Silence [ep]
*Year: 2020
*Genre: Progressive/Technical Deathcore
*Country: United Kingdom (IMG:https://metalarea.org/forum/style_images/flags/United%20Kingdom.png)
*Format: mp3@CBR320kbps
*Size: 50MB

Tracklist:
01. Jorogumo Yokai 04:43
02. One Minute To Midnight 03:11
03. Digital Suicide 03:33
04. Allowing Your Traitors To Die 04:21
05. Silence (In The Place Where Heaven Should Be Found) 04:19
******************************
Total playing time: 20:07



(IMG:https://metalarea.org/images/youtube.png)

Technical info
(IMG:https://metalarea.org/images/spectrogram/2021_May/c02fb5d81d003fad4df737436183ad42.png)
Input File: 02 One Minute to Midnight.mp3
Channels : 2
Sample Rate : 44100
Precision : 16-bit
Duration : 00:03:11.88 = 8462040 samples = 14391.2 CDDA sectors
File Size : 8.41M
Bit Rate : 351k
Sample Encoding: MPEG audio (layer I, II or III)
Comments :
Title=One Minute to Midnight
Artist=Monasteries
Album=Silence
Tracknumber=2/5
Year=2021-21-20
Genre=Metal
Discnumber=1/1



Register


Go to the top of the page
  Insert nick Quick quote
+Quote Post

Reply to this topicStart new topic
2 User(s) are reading this topic (2 Guests and 0 Anonymous Users)
0 Members:

 



- Lo-Fi Version Support form
Copyrights and abuse reports form
Time is now: 18th May 2021 - 02:18:49