Welcome Guest ( Log In | Register )

> Releases Upload / Добавление релизов

Добавить релиз тут / Click here to add release
Рекомендованные обменники / Recommended file shares

 
Reply to this topicStart new topic
> Acid Blade - Demo 2021 [demo] (2021), Heavy Metal
post May 4 2021, 14:13:37
Post #1

Правь статус, ####!616
**************
Group: Металариец
Posts: 6,193
Releases: 4695
From: 55°35’N 38°08’E
On Forums: 12 years 10 months
Thanks: 86984 time(s)
Unknown


(IMG:https://metalarea.org/images/audiocovers/2021_May/acov_tid350433_thumb.jpg)

*Artist: Acid Blade
*Album: Demo 2021 [demo]
*Year: 2021
*Genre: Heavy Metal
*Country: Germany (IMG:https://metalarea.org/forum/style_images/flags/Germany.png)
*Format: mp3@CBR320kbps
*Size: 31MB

Tracklist:
1.King Killer 03:40
2.Ablaze at Midnight 04:46
3.The Tomb of Khentika Ikheki 04:10
******************************
Total playing time: 12:36



Technical info
(IMG:https://metalarea.org/images/spectrogram/2021_May/1d5526587fb6e75c155895099a99921c.png)
Input File: 01 King Killer.mp3
Channels : 2
Sample Rate : 44100
Precision : 16-bit
Duration : 00:03:40.46 = 9722374 samples = 16534.6 CDDA sectors
File Size : 8.90M
Bit Rate : 323k
Sample Encoding: MPEG audio (layer I, II or III)
Comments :
Title=King Killer
Artist=Acid Blade
Album=Demo 2021
Tracknumber=1
Year=2021
Genre=Heavy Metal



Register


Go to the top of the page
  Insert nick Quick quote
+Quote Post

Reply to this topicStart new topic
1 User(s) are reading this topic (1 Guests and 0 Anonymous Users)
0 Members:

 



- Lo-Fi Version Support form
Copyrights and abuse reports form
Time is now: 18th May 2021 - 02:51:09