Welcome Guest ( Log In | Register )

> Releases Upload / Добавление релизов

Добавить релиз тут / Click here to add release
Рекомендованные обменники / Recommended file shares

> Vampyric Tyrant - Das Schwert Der Sterne [ep] (2021), Black Metal
post May 4 2021, 15:36:22
Post #1

𝕻𝕬𝕹𝕬𝕮𝕰𝕬
*********
Group: Металариец
Posts: 922
Releases: 544
On Forums: 8 years 11 months
Thanks: 9760 time(s)
Unknown


(IMG:https://metalarea.org/images/audiocovers/2021_May/acov_tid350435_thumb.jpg)

*Artist: Vampyric Tyrant
*Album: Das Schwert Der Sterne [ep]
*Year: 2021
*Genre: Black Metal
*Country: Germany (IMG:https://metalarea.org/forum/style_images/flags/Germany.png)
*Format: mp3@CBR320kbps
*Size: 49MB

Tracklist:
1. 1000 Winter 06:43
2. Das Schwert Der Sterne 05:34
3. In Den Hallen Des Nachtkönigs 03:18
4. Unter Der Mondzitadelle 05:20
******************************
Total playing time: 20:55



Extended info
Cassette limited to 100 hand numbered copies.


Technical info
(IMG:https://metalarea.org/images/spectrogram/2021_May/f43e4f2662f104c344660dc6e2e8b6c3.png)
Input File: 04 - Unter Der Mondzitadelle.mp3
Channels : 2
Sample Rate : 44100
Precision : 16-bit
Duration : 00:05:20.33 = 14126729 samples = 24025 CDDA sectors
File Size : 12.9M
Bit Rate : 323k
Sample Encoding: MPEG audio (layer I, II or III)
Comments :
Title=Unter Der Mondzitadelle
Artist=Vampyric Tyrant
Album=Das Schwert Der Sterne
Tracknumber=4
Year=2021
Genre=Black Metal



Register


Go to the top of the page
  Insert nick Quick quote
+Quote Post
 
Start new topic
Replies (1 - 3)
post May 4 2021, 16:21:30
Post #2

𝕻𝕬𝕹𝕬𝕮𝕰𝕬
*********
Group: Металариец
Posts: 922
Releases: 544
On Forums: 8 years 11 months
Thanks: 9760 time(s)
Unknown


FLAC 254MB
Register


Go to the top of the page
  Insert nick Quick quote
+Quote Post
post May 4 2021, 17:18:47
Post #3

Шесть Литров
******
Group: Металариец
Posts: 502
Releases: 21
From: Подольск
On Forums: 11 years 11 months
Thanks: 791 time(s)
Russian Federation


youtube example
Go to the top of the page
  Insert nick Quick quote
+Quote Post
post May 6 2021, 06:35:29
Post #4

градусы контрастов
**************
Group: Металариец
Posts: 4,912
Releases: 0
On Forums: 5 years 3 months
Thanks: 3187 time(s)
Unknown


gut (IMG:style_emoticons/default/true_black.gif)
Go to the top of the page
  Insert nick Quick quote
+Quote Post

Reply to this topicStart new topic
2 User(s) are reading this topic (2 Guests and 0 Anonymous Users)
0 Members:

 



- Lo-Fi Version Support form
Copyrights and abuse reports form
Time is now: 18th May 2021 - 02:47:56