Welcome Guest ( Log In | Register )

> Releases Upload / Добавление релизов

Добавить релиз тут / Click here to add release
Рекомендованные обменники / Recommended file shares

> Trest - Ordalium (2019), Black Metal
post May 4 2021, 15:59:02
Post #1

the faceless one
Group Icon
Group: S-moderation team
Posts: 9,396
Releases: 1938
On Forums: 12 years 9 months
Thanks: 117631 time(s)
Russian Federation


(IMG:http://metalarea.org/images/audiocovers/2021_May/acov_tid350436_thumb.jpg)

*Artist: Trest
*Album: Ordalium
*Year: 2019
*Genre: Black Metal
*Country: Germany (IMG:http://metalarea.org/forum/style_images/flags/Germany.png)
*Format: mp3@CBR320kbps
*Size: 124MB

Tracklist:
1. 1st Witch: Horne (Ordeal Version) 05:25
2. 2nd Witch: Debaraz (Ordeal Version) 03:56
3. 3rd Witch: Zdunk (Ordeal Version) 05:56
4. 4th Witch: Palles (Ordeal Version) 02:58
5. 5th Witch: Gesche (Ordeal Version) 07:58
6. 1st Witch: Horne (Pyre Version) 05:25
7. 2nd Witch: Debaraz (Pyre Version) 03:54
8. 3rd Witch: Zdunk (Pyre Version) 05:58
9. 4th Witch: Palles (Pyre Version) 02:58
10. 5th Witch: Gesche (Pyre Version) 07:58
******************************
Total playing time: 52:26



Extended info
Звуки, достойные гулких крипт, сферической волной отскакивают от мозглых стен, резонируют в тесноте подземных горловин. Вороны, собравшиеся рядом со своими мёртвыми сородичами, пронзительно кричат, требуя ниспослать и на головы жалких профанов всевозможные несчастья. Им вторят роящиеся у падали мухи, посланники нечисти. Malleus Maleficarum, крушащий саму жизнь, во имя торжества ереси и ведовства.

Экслюзивно для портала.


Technical info
(IMG:http://metalarea.org/images/spectrogram/2021_May/ce7564fb63ddb3bc251bd5ac36307ed0.png)
Input File: 05 - 5th Witch - Gesche (Ordeal Version).mp3
Channels : 2
Sample Rate : 44100
Precision : 16-bit
Duration : 00:07:58.09 = 21083901 samples = 35857 CDDA sectors
File Size : 19.1M
Bit Rate : 320k
Sample Encoding: MPEG audio (layer I, II or III)
Comments :
Title=5Th Witch - Gesche (Ordeal Version)
Artist=Trest
Album=Ordalium
Tracknumber=05/10
Year=2019
Genre=Black Metal



Register


Go to the top of the page
  Insert nick Quick quote
+Quote Post
 
Start new topic
Replies (1 - 4)
post May 5 2021, 08:54:13
Post #2

Четыре Литра
****
Group: Металариец
Posts: 312
Releases: 20
From: Saint-Petersburg, Купчино
On Forums: 15 years 6 months
Thanks: 498 time(s)
Russian Federation


Ну не прямо уж так как в описании, но злобно, хорошо злобно. Релиз понравился.
Go to the top of the page
  Insert nick Quick quote
+Quote Post
post May 6 2021, 04:41:07
Post #3

кручу наждак
**************
Group: Металариец
Posts: 4,957
Releases: 104
From: Самара
On Forums: 11 years 5 days
Thanks: 3996 time(s)
Russian Federation


Интересная концепция - записать обычные и raw версии песен. И нашим, и вашим, тыкскыть.
По мне, чистые версии поинтересней звучат.


Thanks:
(1) Occultas,
Go to the top of the page
  Insert nick Quick quote
+Quote Post
post May 6 2021, 05:07:23
Post #4

градусы контрастов
**************
Group: Металариец
Posts: 4,912
Releases: 0
On Forums: 5 years 3 months
Thanks: 3187 time(s)
Unknown


который лопнул.


Thanks:
(1) nsk2008,
Go to the top of the page
  Insert nick Quick quote
+Quote Post
post May 6 2021, 20:24:58
Post #5

**************
Group: Металариец
Posts: 2,623
Releases: 14
From: Казань
On Forums: 11 years 8 months
Thanks: 3637 time(s)
Russian Federation


Концептуальные мотивы, презентованные Trest в пяти зловещих биографиях тотемного средневековья, предлагают погрузиться в захватывающий перфоманс переживаний и мучений, нашедших и запатентовавших себя в нотах гримуара Ordalium. Каждая композиция - это отдельная История, История Борьбы, Фанатизма, Безжалостности и исторических Иллюзий.
Ропот Бунтарства героев сопровождает музыкальная панорама холодного и беспристрастного Black Metal Действа проецирующего как и насмешку, так и надменность холодного скепсиса по отношению к героям. Немцы всегда умели судить беспристрастно, великие Палачи и Художники ремесла - они же ценители Прекрасного. Ибо что может быть прекраснее плача Ведьмы на костре, пламя которого поглощает все сомнения и нерешительность? Все Еретики средневековья будут Оправданы в одиозных Black Metal работах Тевтонии, а все Легенды зазвучат Вновь в ежедневных молитвах под хоралы послушниц, что займут собою плаху.
Сегодня во времена Безумия, когда История исчезает на глазах, нужно извлекать самые отвратительные вещи, тотально омерзительный смрад в драме бытия. Вольно или невольно.
Ибо все Демоническое Присутствует, а такие работы открывают страницы Черной Летописи. Она позволяет вырастать крыльям за спиной.


Thanks:
Go to the top of the page
  Insert nick Quick quote
+Quote Post

Reply to this topicStart new topic
2 User(s) are reading this topic (2 Guests and 0 Anonymous Users)
0 Members:

 



- Lo-Fi Version Support form
Copyrights and abuse reports form
Time is now: 18th May 2021 - 02:59:20