Welcome Guest ( Log In | Register )

> Releases Upload / Добавление релизов

Добавить релиз тут / Click here to add release
Рекомендованные обменники / Recommended file shares

> Grovel - Grovel (2020), Sludge/Doom Metal
post May 4 2021, 17:15:29
Post #1

Правь статус, ####!111
**************
Group: Металариец
Posts: 3,965
Releases: 3623
From: Одесса
On Forums: 12 years 11 months
Thanks: 38880 time(s)
Ukraine


(IMG:http://metalarea.org/images/audiocovers/2021_May/acov_tid350437_thumb.png)

*Artist: Grovel
*Album: Grovel
*Year: 2020
*Genre: Sludge/Doom Metal
*Country: United States (IMG:http://metalarea.org/forum/style_images/flags/United%20States.png)
*Format: mp3@CBR320kbps
*Size: 71MB

Tracklist:
1. Sunken Pyre 05:41
2. Snake Eater 04:03
3. Undead Merchant 04:23
4. Barren 06:43
5. Eating Planets Whole 03:25
6. Ash Lake 05:27
******************************
Total playing time: 29:42



Technical info
(IMG:http://metalarea.org/images/spectrogram/2021_May/3acc10af7dc072542a9ab12d12d25689.png)
Input File: 04. Barren.mp3
Channels : 2
Sample Rate : 44100
Precision : 16-bit
Duration : 00:06:43.09 = 17776445 samples = 30232 CDDA sectors
File Size : 16.2M
Bit Rate : 322k
Sample Encoding: MPEG audio (layer I, II or III)
Comments :
Title=Barren
Artist=Grovel
Album=Grovel
Tracknumber=4
Year=2020
Genre=Sludge/Doom Metal



Register


Go to the top of the page
  Insert nick Quick quote
+Quote Post
 
Start new topic
Replies (1 - 1)
post May 5 2021, 14:57:17
Post #2

Правь статус, ####!111
**************
Group: Металариец
Posts: 48,732
Releases: 822
On Forums: 11 years 11 months
Thanks: 43201 time(s)
Russian Federation


Неплохо, скажем так. На разок покатит, не без плезира.
Go to the top of the page
  Insert nick Quick quote
+Quote Post

Reply to this topicStart new topic
2 User(s) are reading this topic (2 Guests and 0 Anonymous Users)
0 Members:

 



- Lo-Fi Version Support form
Copyrights and abuse reports form
Time is now: 18th May 2021 - 03:10:00