Welcome Guest ( Log In | Register )

> Releases Upload / Добавление релизов

Добавить релиз тут / Click here to add release
Рекомендованные обменники / Recommended file shares

 
Reply to this topicStart new topic
> Moorgeist - Moorgeist & Hymnen Der Nacht [compilation] (2021), Raw Black Metal
post May 4 2021, 17:34:20
Post #1

Правь статус, ####!111
**************
Group: Металариец
Posts: 2,255
Releases: 1810
From: Praha
On Forums: 7 years 1 month
Thanks: 47754 time(s)
Czech Republic


(IMG:http://metalarea.org/images/audiocovers/2021_May/acov_tid350438_thumb.jpg)

*Artist: Moorgeist
*Album: Moorgeist & Hymnen Der Nacht [compilation]
*Year: 2021
*Genre: Raw Black Metal
*Country: Germany (IMG:http://metalarea.org/forum/style_images/flags/Germany.png)
*Format: mp3@CBR320kbps
*Size: 130MB

Tracklist:
1. Im Kerker Des Modrigen Sumpfes 5:31
2. Vom Zauber Der Nacht & Dem Fluch Der Dunkelheit 6:46
3. Moorgeist 4:59
4. Der Sieg Der Natur Über Den Menschen 6:32
5. Entering The Elder Forest (Einklang) 1:30
6. Mitternacht 5:31
7. Ruinen Der Draugr 5:51
8. Hræsvelgr 6:28
9. Svartalfheim 10:52
10. Spectral Path (Ausklang) 1:50
******************************
Total playing time: 55:50




Extended info
Narbentage Produktionen ‎– NT-CD 51


Technical info
(IMG:http://metalarea.org/images/spectrogram/2021_May/aae1e6d8ca5a9723b47f19150cdf4803.png)
Input File: 01. Im Kerker des modrigen Sumpfes.mp3
Channels : 2
Sample Rate : 44100
Precision : 16-bit
Duration : 00:05:31.23 = 14607155 samples = 24842.1 CDDA sectors
File Size : 13.4M
Bit Rate : 323k
Sample Encoding: MPEG audio (layer I, II or III)
Comments :
Title=Im Kerker des modrigen Sumpfes
Artist=Moorgeist
Album=Moorgeist & Hymnen der Nacht
Tracknumber=01/10
Year=2020
Genre=Black Metal



Register


Go to the top of the page
  Insert nick Quick quote
+Quote Post

Reply to this topicStart new topic
2 User(s) are reading this topic (2 Guests and 0 Anonymous Users)
0 Members:

 



- Lo-Fi Version Support form
Copyrights and abuse reports form
Time is now: 18th May 2021 - 03:22:23