Welcome Guest ( Log In | Register )

> Releases Upload / Добавление релизов

Добавить релиз тут / Click here to add release
Рекомендованные обменники / Recommended file shares

 
Reply to this topicStart new topic
> Grrrmba & Boru - Grrrmba/Boru [split] (2020), Blackened Doom Metal/Sludge | Sludge/Doom/Post-Metal
post May 4 2021, 17:42:51
Post #1

Правь статус, ####!111
**************
Group: Металариец
Posts: 3,965
Releases: 3623
From: Одесса
On Forums: 12 years 11 months
Thanks: 38880 time(s)
Ukraine


(IMG:http://metalarea.org/images/audiocovers/2021_May/acov_tid350439_thumb.jpg)

*Artist: Grrrmba & Boru
*Album: Grrrmba/Boru [split]
*Year: 2020
*Genre: Blackened Doom Metal/Sludge | Sludge/Doom/Post-Metal
*Country: Hungary (IMG:http://metalarea.org/forum/style_images/flags/Hungary.png) | Hungary (IMG:http://metalarea.org/forum/style_images/flags/Hungary.png)
*Format: mp3@CBR320kbps
*Size: 51MB

Tracklist:
Grrrmba:
1. Revelation (Embodiment pt 2) 06:57
Boru:
2. Maeror 13:59
******************************
Total playing time: 20:56




Technical info
(IMG:http://metalarea.org/images/spectrogram/2021_May/624fa781f05c045d39b32bafe591e7b7.png)
Input File: 02. Maeror.mp3
Channels : 2
Sample Rate : 44100
Precision : 16-bit
Duration : 00:13:59.73 = 37032049 samples = 62979.7 CDDA sectors
File Size : 33.6M
Bit Rate : 320k
Sample Encoding: MPEG audio (layer I, II or III)
Comments :
Title=Maeror
Artist=Boru
Album=Grrrmba / Boru (Split)
Tracknumber=2
Year=2020
Genre=Sludge/Doom/Post-Metal



Register


Go to the top of the page
  Insert nick Quick quote
+Quote Post

Reply to this topicStart new topic
1 User(s) are reading this topic (1 Guests and 0 Anonymous Users)
0 Members:

 



- Lo-Fi Version Support form
Copyrights and abuse reports form
Time is now: 18th May 2021 - 02:13:42